Прошлой зимой / L'hiver dernier / Last Winter (Джон Шэнк / John Shank) [2011, Бельгия, Франция, Швейцария, Драма, DVDRip] + Sub Rus + Original Fre


Статистика раздачи [Обновить пиров]
Размер:  1.37 GB   |    Зарегистрирован:  11 месяцев 15 дней   |    Скачан:  0 раз

Полного источника не было: Никогда

Личеров:  2  [  0 KB/s  ]   Подробная статистика пиров
 
   
 
 
 

[Цитировать]

Прошлой зимой / L'hiver dernier / Last Winter
Страна: Бельгия, Франция, Швейцария
Жанр: Драма
Год выпуска: 2011
Продолжительность: 01:39:14
Перевод: Субтитры
Cубтитры: русские: creo140
Оригинальная аудиодорожка: французский
Режиссер: Джон Шэнк / John Shank
В ролях: Венсан Ротье, Анаис Демустье, Флоранс Луаре, Аврора Клеман, Мишель Сюбор, Карло Брандт, Тео Лабориэ
Описание: Честный человек пытается бороться за правду в жестоком и несправедливом мире, где правят только деньги. Герой следит за тем, как медленно меняется весь этот мир.
Доп. информация: http://www.kinopoisk.ru/film/577575/
http://www.imdb.com/title/tt1810798/
Сэмпл: http://multi-up.com/1080680
Качество видео: DVDRip
Формат видео: AVI
Видео: Xvid 720x304 25fps 1524kbps
Аудио: Dolby AC3 48000Hz 6ch 448kbps
Формат субтитров: softsub (SRT)

Фрагмент субтитров

1
00:01:47,400 --> 00:01:48,890
Ложись.
2
00:01:50,080 --> 00:01:51,764
Ложись спать...
3
00:01:53,080 --> 00:01:54,764
Тогда проснёшься на рассвете...
4
00:01:55,400 --> 00:01:57,323
И встанешь вместе с солнышком...
5
00:01:58,560 --> 00:02:00,642
Так же, как и я, когда был
маленьким мальчиком.
6
00:02:06,880 --> 00:02:08,644
Я принадлежал этой земле.
7
00:02:10,960 --> 00:02:12,485
Как и мой отец,
8
00:02:12,680 --> 00:02:15,684
и отец моего отца,
и дед моего отца.
9
00:02:19,000 --> 00:02:21,002
Эта земля дала мне всё.
10
00:02:24,720 --> 00:02:26,688
Она всегда несла меня.
11
00:03:49,560 --> 00:03:56,887
- ПРОШЛОЙ ЗИМОЙ -
12
00:15:06,560 --> 00:15:09,848
Заплатить на твой счёт?
- Нет, сделай это в кооперативе.
13
00:15:19,320 --> 00:15:21,846
В течении 60 дней, хорошо?
- Хорошо.
14
00:15:38,480 --> 00:15:40,562
Привет!
- Привет!
15
00:16:33,400 --> 00:16:35,323
Значит они забрали твоих телят?
16
00:16:42,440 --> 00:16:43,851
Я столкнулась с Жаком.
17
00:16:45,240 --> 00:16:47,720
Он сказал мне, что это был
тяжелый год для кооператива.
18
00:16:48,600 --> 00:16:50,523
Не слушай,
что он говорит.

MediaInfo

Format : AVI
Format/Info : Audio Video Interleave
File size : 1.37 GiB
Duration : 1h 39mn
Overall bit rate : 1 982 Kbps
Writing application : VirtualDubMod 1.5.10.3 | www.virtualdub-fr.org || (build 2550/release)
Writing library : VirtualDubMod build 2550/release
Video
ID : 0
Format : MPEG-4 Visual
Format profile : Advanced Simple@L5
Format settings, BVOP : 1
Format settings, QPel : No
Format settings, GMC : No warppoints
Format settings, Matrix : Default (MPEG)
Codec ID : XVID
Codec ID/Hint : XviD
Duration : 1h 39mn
Bit rate : 1 524 Kbps
Width : 720 pixels
Height : 304 pixels
Display aspect ratio : 2.35:1
Frame rate : 25.000 fps
Color space : YUV
Chroma subsampling : 4:2:0
Bit depth : 8 bits
Scan type : Progressive
Compression mode : Lossy
Bits/(Pixel*Frame) : 0.279
Stream size : 1.06 GiB (77%)
Writing library : XviD 1.2.1 (UTC 2008-12-04)
Audio
ID : 1
Format : AC-3
Format/Info : Audio Coding 3
Mode extension : CM (complete main)
Format settings, Endianness : Big
Codec ID : 2000
Duration : 1h 39mn
Bit rate mode : Constant
Bit rate : 448 Kbps
Channel(s) : 6 channels
Channel positions : Front: L C R, Side: L R, LFE
Sampling rate : 48.0 KHz
Compression mode : Lossy
Stream size : 318 MiB (23%)
Alignment : Split accross interleaves
Interleave, duration : 40 ms (1.00 video frame)
Interleave, preload duration : 500 ms

Скриншот c названием фильма

[teatrix.ru].t12373.torrent 
Торрент: Зарегистрирован [ 2015-12-24 02:15 ] · C43473D943CF8486E8B61FF3A815190AC931933C

Скачать .torrent

Скачать

14 KB

Статус: проверено
Скачан: 0 раз
Размер: 1.37 GB
terms.php



Быстрый ответ

Имя:

      
Для отправки сообщений необходимо включить JavaScript
Показать сообщения:    

Текущее время: 08-Дек 19:12

Часовой пояс: UTC + 3


Вы можете начинать темы
Вы можете отвечать на сообщения
Вы не можете редактировать свои сообщения
Вы не можете удалять свои сообщения
Вы не можете голосовать в опросах
Вы не можете прикреплять файлы к сообщениям
Вы можете скачивать файлы