Портрет Жюстена Трюдо, 23-го премьер-министра Канады / Portrait intime de Justin Trudeau 23e Premier ministre du Canada (Питер Джон Инглз / Peter John Ingles) [2015, документальный, фильм-портрет, DVB] Original (Fre) + Sub (Rus, Eng, Fre, Deu)


Статистика раздачи [Обновить пиров]
Размер:  993 MB   |    Зарегистрирован:  11 месяцев 15 дней   |    Скачан:  0 раз

Полного источника не было: Никогда

Личеров:  3  [  0 KB/s  ]   Подробная статистика пиров
 
   
 
 
 

[Цитировать]

Портрет Жюстена Трюдо, 23-го премьер-министра Канады
Portrait intime de Justin Trudeau 23e Premier ministre du Canada- Дата/Год выпуска: 2015
Страна: Канада
Жанр: документальный, фильм-портрет
Продолжительность: 00:43:59
Перевод: Субтитры
Доп. инфо о переводе: русский перевод М.Кузиной, Éclair Media
Русские субтитры: естьФормат субтитров: prerendered (IDX+SUB)
Доп. информация о субтитрах: русские, английские, французские, немецкие, нидерландские, румынские
Оригинальная аудиодорожка: французский
Режиссер: Питер Джон Инглз / Peter John Ingles
Телеканал: TV5MONDE Europe
Описание: Жюстен Трюдо – легендарная фигура, наподобие рок-звезды. Он выглядит очень молодо. Но он уже немало испытал и набрался жизненного опыта. У него есть свои принципы. Избрание Жюстена Трюдо на пост премьер-министра ознаменовало собой смену поколений. Большинству его министров – 15 мужчинам и 15 женщинам – от 35 до 50 лет. Все вместе они намерены совместить экономический рост и защиту окружающей среды. Ж.Трюдо обещает поддерживать культуру и пропагандировать ее за границей, сократить налоги для среднего класса и увеличить налоги самых богатых, а также легализовать марихуану…
Доп. информация: Hot Bird (13.0°E) DVB-S

качество: DVB
формат: MKV
Видео: MPEG Video 2, 720x576@1024x576 (16:9), 25 fps, ~2901 kbps avg, 0.280 bit/pixel
Аудио: MPEG Audio 2, 2 ch, 48 kHz, 192 kbps - французский

MediaInfo

ОбщееУникальный идентификатор : 223962485140986879781834568365106022190 (0xA87D9B0C38CBE2CB8323DBDAEC60472E)Полное имя : F:\My Torrents 3\[apreder]Portrait_intime_de_Justin_Trudeau(2015)DVB.mkvФормат : MatroskaВерсия формата : Version 2Размер файла : 993 МбайтПродолжительность : 43 м.Режим общего битрейта : ПеременныйОбщий поток : 3156 Кбит/секНазвание фильма : Portrait intime de Justin TrudeauДата выпуска : 2015-00-00Дата кодирования : UTC 2015-12-23 14:58:01Программа кодирования : mkvmerge v8.6.1 ('Flying') 64bitБиблиотека кодирования : libebml v1.3.3 + libmatroska v1.4.4Attachements : cover.png / cover_small.pngDIRECTOR : Peter John InglesGENRE : DocumentaryKEYWORDS :LAW_RATING : 12+
ВидеоИдентификатор : 1Формат : MPEG VideoВерсия формата : Version 2Профиль формата : Main@MainПараметр BVOP формата : ДаПараметр матрицы формата : ВыборочнаяПараметр GOP формата : VariableFormat_Settings_PictureStructure : FrameИдентификатор кодека : V_MPEG2Идентификатор кодека/Информация : MPEG 1 or 2 VideoПродолжительность : 43 м.Вид битрейта : ПеременныйБитрейт : 2901 Кбит/секШирина : 720 пикселейВысота : 576 пикселейСоотношение сторон : 16:9Режим частоты кадров : ПостоянныйЧастота кадров : 25,000 кадров/секСтандарт вещания : PALЦветовое пространство : YUVСубдискретизация насыщенности : 4:2:0Битовая глубина : 8 битТип развёртки : ЧересстрочнаяПорядок развёртки : Верхнее поле первоеМетод сжатия : С потерямиБит/(Пиксели*Кадры) : 0.280Временной код первого кадра : 00:00:00:00Оригинал временного кода : Group of pictures headerРазмер потока : 913 Мбайт (92%)Default : ДаForced : Нет
АудиоИдентификатор : 2Формат : MPEG AudioВерсия формата : Version 1Профиль формата : Layer 2Режим : Joint stereoРасширение режима : Intensity Stereo + MS StereoИдентификатор кодека : A_MPEG/L2Идентификатор кодека/Подсказка : MP2Продолжительность : 43 м.Вид битрейта : ПостоянныйБитрейт : 192 Кбит/секКаналы : 2 каналаЧастота : 48,0 КГцМетод сжатия : С потерямиРазмер потока : 60,4 Мбайт (6%)Язык : FrenchDefault : ДаForced : Нет
Текст #1Идентификатор : 3Формат : VobSubИдентификатор кодека : S_VOBSUBИдентификатор кодека/Информация : Picture based subtitle format used on DVDsЯзык : RussianDefault : ДаForced : Нет
Текст #2Идентификатор : 4Формат : VobSubИдентификатор кодека : S_VOBSUBИдентификатор кодека/Информация : Picture based subtitle format used on DVDsЯзык : EnglishDefault : НетForced : Нет
Текст #3Идентификатор : 5Формат : VobSubИдентификатор кодека : S_VOBSUBИдентификатор кодека/Информация : Picture based subtitle format used on DVDsЯзык : FrenchDefault : НетForced : Нет
Текст #4Идентификатор : 6Формат : VobSubИдентификатор кодека : S_VOBSUBИдентификатор кодека/Информация : Picture based subtitle format used on DVDsЯзык : GermanDefault : НетForced : Нет
Текст #5Идентификатор : 7Формат : VobSubИдентификатор кодека : S_VOBSUBИдентификатор кодека/Информация : Picture based subtitle format used on DVDsЯзык : DutchDefault : НетForced : Нет
Текст #6Идентификатор : 8Формат : VobSubИдентификатор кодека : S_VOBSUBИдентификатор кодека/Информация : Picture based subtitle format used on DVDsЯзык : RomanianDefault : НетForced : Нет

Скриншоты


Резервные скриншоты


[teatrix.ru].t12375.torrent 
Торрент: Зарегистрирован [ 2015-12-24 02:15 ] · C85A0579548F140EE9AD9E159A96AFE8698CF5A1

Скачать .torrent

Скачать

20 KB

Статус: проверено
Скачан: 0 раз
Размер: 993 MB
terms.php



Быстрый ответ

Имя:

      
Для отправки сообщений необходимо включить JavaScript
Показать сообщения:    

Текущее время: 08-Дек 11:01

Часовой пояс: UTC + 3


Вы можете начинать темы
Вы можете отвечать на сообщения
Вы не можете редактировать свои сообщения
Вы не можете удалять свои сообщения
Вы не можете голосовать в опросах
Вы не можете прикреплять файлы к сообщениям
Вы можете скачивать файлы