(Score) Angelo Badalamenti - The Straight Story - 1999, FLAC (tracks+.cue), lossless


Статистика раздачи [Обновить пиров]
Размер:  225 MB   |    Зарегистрирован:  11 месяцев 13 дней   |    Скачан:  0 раз

Полного источника не было: Никогда

Личеров:  6  [  0 KB/s  ]   Подробная статистика пиров
 
   
 
 
 

[Цитировать]

Angelo Badalamenti - The Straight Story
Жанр: Score
Год выпуска диска: 1999
Аудио кодек: FLAC
Тип рипа: tracks+.cue
Битрейт аудио: lossless
Трэклист:
01. Laurens, Iowa (02:46)
02. Rose's Theme (02:56)
03. Laurens Walking (04:12)
04. Sprinkler (02:56)
05. Alvin's Theme (04:24)
06. Final Miles (04:06)
07. Country Waltz (02:46)
08. Rose's Theme (Variation) (03:07)
09. Country Theme (03:38)
10. Crystal (04:07)
11. Nostalgia (06:51)
12. Farmland Tour (03:09)
13. Montage (07:25)
Доп. информация: Картина непререкаемого мастера современного кино, Дэвида Линча, несомненно, удивит поклонников режиссера и ни в коем случае не оставит их равнодушными. `Простая история` самый `нормальный` и потому самый загадочный фильм режиссера, в котором он проникает в сокровенные тайны человеческого бытия. Традиционная дорожная баллада превращается в проникновенную историю паломничества человека, стремящегося сохранить свое достоинство в любых ситуациях. Этому фильму и его главному герою нельзя не сострадать. `Простая история` безусловное украшение элитной серии `Пять звезд`. Приз `Пять континентов` от Европейской Киноакадемии 1999г., Номинация на `Оскар` 2000г. за лучшую мужскую роль, номинация на `Золотой Глобус` 2000 г., номинация на `Золотую пальмовую Ветвь` МКФ в Каннах 1999 г, и много иных призов.

Log EAC

EAC extraction logfile from 28. May 2007, 6:11 for CDBadalamenti, Angelo / Straight Story, The
Used drive : TSSTcorpCD/DVDW SH-S182D Adapter: 1 ID: 0Read mode : Secure with NO C2, accurate stream, disable cacheRead offset correction : 6Overread into Lead-In and Lead-Out : No
Used output format : C:\Program Files\Exact Audio Copy\flac.exe (User Defined Encoder) 192 kBit/s Additional command line options : -8 -A tukey(0.25) -A gauss(0.1875) -b 4096 -V -T "artist=%a" -T "title=%t" -T "album=%g" -T "date=%y" -T "tracknumber=%n" -T "genre=%m" %s --sector-align
Other options : Fill up missing offset samples with silence : Yes Delete leading and trailing silent blocks : No Installed external ASPI interface
Track 1 Filename F:\MP3\Badalamenti, Angelo - 1999 Straight Story, The (FLAC) - Badalamenti, Angelo - Laurens, Iowa.wav
Pre-gap length 0:00:02.00
Peak level 89.2 % Track quality 100.0 % Test CRC B01B7841 Copy CRC B01B7841 Copy OK
Track 2 Filename F:\MP3\Badalamenti, Angelo - 1999 Straight Story, The (FLAC) - Badalamenti, Angelo - Rose's Theme.wav
Peak level 97.1 % Track quality 100.0 % Test CRC D4EF940A Copy CRC D4EF940A Copy OK
Track 3 Filename F:\MP3\Badalamenti, Angelo - 1999 Straight Story, The (FLAC) - Badalamenti, Angelo - Laurens Walking.wav
Peak level 88.5 % Track quality 100.0 % Test CRC 0A43BA08 Copy CRC 0A43BA08 Copy OK
Track 4 Filename F:\MP3\Badalamenti, Angelo - 1999 Straight Story, The (FLAC) - Badalamenti, Angelo - Sprinkler.wav
Peak level 97.3 % Track quality 100.0 % Test CRC 746A36AA Copy CRC 746A36AA Copy OK
Track 5 Filename F:\MP3\Badalamenti, Angelo - 1999 Straight Story, The (FLAC) - Badalamenti, Angelo - Alvin's Theme.wav
Peak level 73.6 % Track quality 100.0 % Test CRC 3D628F1E Copy CRC 3D628F1E Copy OK
Track 6 Filename F:\MP3\Badalamenti, Angelo - 1999 Straight Story, The (FLAC) - Badalamenti, Angelo - Final Miles.wav
Peak level 48.6 % Track quality 100.0 % Test CRC 486EBFE5 Copy CRC 486EBFE5 Copy OK
Track 7 Filename F:\MP3\Badalamenti, Angelo - 1999 Straight Story, The (FLAC) - Badalamenti, Angelo - Country Waltz.wav
Peak level 95.6 % Track quality 99.9 % Test CRC 70308E5E Copy CRC 70308E5E Copy OK
Track 8 Filename F:\MP3\Badalamenti, Angelo - 1999 Straight Story, The (FLAC) - Badalamenti, Angelo - Rose's Theme (Variation).wav
Peak level 47.0 % Track quality 100.0 % Test CRC F8B7E824 Copy CRC F8B7E824 Copy OK
Track 9 Filename F:\MP3\Badalamenti, Angelo - 1999 Straight Story, The (FLAC) - Badalamenti, Angelo - Country Theme.wav
Peak level 94.3 % Track quality 100.0 % Test CRC B864D89B Copy CRC B864D89B Copy OK
Track 10 Filename F:\MP3\Badalamenti, Angelo - 1999 Straight Story, The (FLAC) - Badalamenti, Angelo - Crystal.wav
Peak level 41.9 % Track quality 100.0 % Test CRC CEA91482 Copy CRC CEA91482 Copy OK
Track 11 Filename F:\MP3\Badalamenti, Angelo - 1999 Straight Story, The (FLAC) - Badalamenti, Angelo - Nostalgia.wav
Peak level 29.4 % Track quality 100.0 % Test CRC D3C89A5A Copy CRC D3C89A5A Copy OK
Track 12 Filename F:\MP3\Badalamenti, Angelo - 1999 Straight Story, The (FLAC) - Badalamenti, Angelo - Farmland Tour.wav
Peak level 96.5 % Track quality 100.0 % Test CRC 58DDDFF4 Copy CRC 58DDDFF4 Copy OK
Track 13 Filename F:\MP3\Badalamenti, Angelo - 1999 Straight Story, The (FLAC) - Badalamenti, Angelo - Montage.wav
Peak level 94.1 % Track quality 100.0 % Test CRC B6378349 Copy CRC B6378349 Copy OK
No errors occured
End of status report
Альтернатива предыдущему потенциально безродному релизу (в котором отсутствовал лог).
[teatrix.ru].t12377.torrent 
Торрент: Зарегистрирован [ 2015-12-25 14:19 ] · 16A6310BE7A98469DA53DCE06F1246F430DF4810

Скачать .torrent

Скачать

19 KB

Статус: проверено
Скачан: 0 раз
Размер: 225 MB
terms.php



Быстрый ответ

Имя:

      
Для отправки сообщений необходимо включить JavaScript
Показать сообщения:    

Текущее время: 07-Дек 15:29

Часовой пояс: UTC + 3


Вы можете начинать темы
Вы можете отвечать на сообщения
Вы не можете редактировать свои сообщения
Вы не можете удалять свои сообщения
Вы не можете голосовать в опросах
Вы не можете прикреплять файлы к сообщениям
Вы можете скачивать файлы