Чёртовы японцы / Japanese Devils / Riben Guizi (Минору Мацуи / Minoru Matsui) [2001, Япония, документальный, DVDRip] + Sub Rus Eng


Статистика раздачи [Обновить пиров]
Размер:  1.47 GB   |    Зарегистрирован:  11 месяцев 15 дней   |    Скачан:  0 раз

Полного источника не было: Никогда

Личеров:  6  [  0 KB/s  ]   Подробная статистика пиров
 
   
 
 
 

[Цитировать]

Чёртовы японцы / Japanese Devils / Riben Guizi / 日本鬼子
Страна: Япония
Жанр: документальный
Год выпуска: 2001
Продолжительность: 02:40:30
Перевод 1: Субтитры русские - дед_сто_лет©
Перевод 2: Субтитры английские - Linda Hoaglund
Оригинальная аудиодорожка: японский
Режиссер: Минору Мацуи / Minoru Matsui
В ролях: Ёсио ЦУТИЯ, Хакудо НАГАТОМИ, Ёсио СИНОДЗУКА, Цуёси ЭБАТО, Тайскэ ФУНЮ, Масао СИКАДА, Ёсио СУДЗУКИ, Ясудзи КАНЭКО, Масаё ЭНОМОТО, Кэн ЮАСА, Итиро КОЯМА, Сёдзо ТОМИНАГА, Тэцудзи КУБОТА, Такэси КОБАЯСИ
Описание: Военные преступники Японии свидетельствуют против себя самих. Их откровения в первую очередь направлены к сердцам простых японцев, которые ничего не знают о том, какие зверства творили Императорские войска в оккупированном Китае. Все, от простого солдата до медсестер, врачей и высших коммандиров участвовали в бесчеловечных пытках, экспериментах на живых людях, массовых убийствах, грабежах, изнасилованиях. Участники этих немыслимых преступлений сами не могут понять, как с ними могло произойти подобное. Их признание - это сознание долга, который на них лежит перед человечеством и своей страной.©
Фильм назван китайским словом Riben Guizi, которым простые китайцы с ненависть обзывали оккупантов.
> > > > > > >
Качество видео: DVDRip
Формат видео: AVI
Видео: 560x416 (1.35:1), 29.970 fps, XviD build 50 ~1106 kbps avg, 0.16 bit/pixel
Аудио: 48 kHz, MPEG Layer 3, 2 ch, ~192.00 kbps avg
Формат субтитров: softsub (SRT)
Доп. информация о субтитрах: дед_сто_лет©

Пример субтитров

1562
02:02:37,817 --> 02:02:41,620
В основном мы грабили, и нам приходилось
избавляться от жителей деревни.
1563
02:02:41,621 --> 02:02:44,134
ТАКЭСИ КОБАЯСИ - бывший капрал
1564
02:02:44,758 --> 02:02:47,671
Мы установили 2 пулемета,
и стали в них стрелять.
1565
02:02:48,561 --> 02:02:53,635
Мы постреляли, и пошли
убедиться, что они все убежали.
1566
02:02:53,700 --> 02:02:56,271
"Отлично, теперь пришло
время нам поживиться"
1567
02:02:57,237 --> 02:03:01,083
Каждый сам искал что-то для себя.
1568
02:03:02,776 --> 02:03:09,921
Это была деревня с высокой стеной.
1569
02:03:10,016 --> 02:03:12,496
У нас был ефрейтор Мураками.
1570
02:03:12,552 --> 02:03:16,830
Во время этих грабительских
вылазок мы всегда были вместе.
1571
02:03:17,024 --> 02:03:18,332
Никогда не расставались.
1572
02:03:18,391 --> 02:03:21,600
Он всегда звал меня
"Пойдем вместе"
1573
02:03:22,095 --> 02:03:28,601
И вот мы пошли, и зашли в один большой дом.
1574
02:03:29,001 --> 02:03:37,353
Там был старик, больше 70 лет.
Он лежал.
1575
02:03:37,911 --> 02:03:44,352
Он на кровати и рядом с
ним молодая женщина.
1576
02:03:44,817 --> 02:03:48,321
Ей было лет 20.
1577
02:03:49,022 --> 02:03:52,552
Мой друг говорит
"Эй, Кобаяси, похоже..."
1578
02:03:52,577 --> 02:03:57,739
"...что нам досталась хорошая
добыча, это здорово"
1579
02:03:58,231 --> 02:04:01,144
А под кроватью у них были яйца.
1580
02:04:01,234 --> 02:04:04,010
Тогда девушка достает эти яйца.
1581
02:04:04,070 --> 02:04:07,711
Думаю, она отложила их для своего отца.
1582
02:04:07,774 --> 02:04:12,348
Она протягивает яйца и говорит
"Возьмите, только не трогайте нас"
1583
02:04:12,412 --> 02:04:14,722
"Оставьте отца в покое"
1584
02:04:14,781 --> 02:04:18,661
Ефрейтор Мураками
бросает эти яйца и говорит...

MediaInfo

General
Complete name : C:\...\Riben.Guizi-Japanese.Devils(2001)Minoru.Matsui\Riben.Guizi-Japanese.Devils(2001)Minoru.Matsui.avi
Format : AVI
Format/Info : Audio Video Interleave
File size : 1.47 GiB
Duration : 2h 40mn
Overall bit rate : 1 307 Kbps
Writing application : VirtualDubMod 1.5.4.1 (build 2178/release)
Writing library : VirtualDubMod build 2178/release
Video
ID : 0
Format : MPEG-4 Visual
Format profile : Advanced Simple@L5
Format settings, BVOP : 1
Format settings, QPel : No
Format settings, GMC : No warppoints
Format settings, Matrix : Custom
Codec ID : XVID
Codec ID/Hint : XviD
Duration : 2h 40mn
Bit rate : 1 106 Kbps
Width : 560 pixels
Height : 416 pixels
Display aspect ratio : 4:3
Frame rate : 29.970 fps
Color space : YUV
Chroma subsampling : 4:2:0
Bit depth : 8 bits
Scan type : Progressive
Compression mode : Lossy
Bits/(Pixel*Frame) : 0.158
Stream size : 1.24 GiB (85%)
Writing library : XviD 1.2.1 (UTC 2008-12-04)
Audio
ID : 1
Format : MPEG Audio
Format version : Version 1
Format profile : Layer 3
Mode : Joint stereo
Mode extension : MS Stereo
Codec ID : 55
Codec ID/Hint : MP3
Duration : 2h 40mn
Bit rate mode : Constant
Bit rate : 192 Kbps
Channel(s) : 2 channels
Sampling rate : 48.0 KHz
Compression mode : Lossy
Stream size : 220 MiB (15%)
Alignment : Aligned on interleaves
Interleave, duration : 67 ms (2.00 video frames)
Interleave, preload duration : 504 ms
Writing library : LAME3.98r
Encoding settings : -m j -V 4 -q 2 -lowpass 18.6 -b 192
Language : Japanese

Скриншот c названием фильма

Скриншоты

[teatrix.ru].t12379.torrent 
Торрент: Зарегистрирован [ 2015-12-26 09:20 ] · 6AE991B97AA7C7F74CF51EC03D6A82B06F58954B

Скачать .torrent

Скачать

15 KB

Статус: проверено
Скачан: 0 раз
Размер: 1.47 GB
terms.php



Быстрый ответ

Имя:

      
Для отправки сообщений необходимо включить JavaScript
Показать сообщения:    

Текущее время: 11-Дек 01:25

Часовой пояс: UTC + 3


Вы можете начинать темы
Вы можете отвечать на сообщения
Вы не можете редактировать свои сообщения
Вы не можете удалять свои сообщения
Вы не можете голосовать в опросах
Вы не можете прикреплять файлы к сообщениям
Вы можете скачивать файлы