Лев Дуров. Творческий вечер (Михаил Славский) [2012, Россия, Творческий вечер, DVB-AVC]


Статистика раздачи [Обновить пиров]
Размер:  1.25 GB   |    Зарегистрирован:  11 месяцев 8 дней   |    Скачан:  0 раз
Сидов:  3  [  0 KB/s  ]   Личеров:  6  [  0 KB/s  ]   Подробная статистика пиров
 
   
 
 

[Цитировать]

Лев Дуров. Творческий вечер
Страна: Россия
Жанр: Творческий вечер
Год выпуска: 2012
Продолжительность: 01:11:21
Режиссёр: Михаил Славский
Описание: Творческая встреча с народным артистом СССР, актером театра и кино, режиссером и педагогом Львом Дуровым, которым восхищается и любит нескольких поколений зрителей.
Возможность живого общения с кумиром, актерские байки, рассказанные с неподражаемым юмором и иронией, стихи, отрывок из спектакля, воспоминания о партнерах по сцене и кино – этот вечер запомнится надолго.
Доп. информация:
Запись потока *.ts с наземного цифрового телеканала "Беларусь 3", ремукс в *.mkv программой VideoReDo.
Качество видео: DVB-AVC
Формат видео: MKV
Видео кодек: H.264
Аудио кодек: MP2
Видео: MPEG4 Video (H264) 720x576 (49:36) 25fps, 2 172 Kbps
Аудио: MP2, 256 kbps, 2 channels, 48 kHz

MediaInfo

General
Unique ID : 128772251750146054073313730815104269632 (0x60E0A23153D680C9444D424590A63D40)
Complete name : D:\Новая земля 2\Театр\002 Творческие вечера\Творческий вечер. Лев Дуров (2012)\Творческий вечер. Лев Дуров_2012.mkv
Format : Matroska
Format version : Version 2
File size : 1.25 GiB
Duration : 1h 11mn
Overall bit rate : 2 512 Kbps
Writing application : Lavf52.64.2
Writing library : Lavf52.64.2
Video
ID : 1
Format : AVC
Format/Info : Advanced Video Codec
Format profile : Main@L3.0
Format settings, CABAC : Yes
Format settings, ReFrames : 4 frames
Codec ID : V_MPEG4/ISO/AVC
Duration : 1h 11mn
Bit rate : 2 206 Kbps
Width : 720 pixels
Height : 576 pixels
Display aspect ratio : 4:3
Original display aspect ratio : 4:3
Frame rate mode : Constant
Frame rate : 25.000 fps
Standard : PAL
Color space : YUV
Chroma subsampling : 4:2:0
Bit depth : 8 bits
Scan type : MBAFF
Scan order : Top Field First
Bits/(Pixel*Frame) : 0.213
Stream size : 1.10 GiB (88%)
Default : Yes
Forced : No
Color primaries : BT.601 PAL
Transfer characteristics : BT.470 System B, BT.470 System G
Matrix coefficients : BT.601
Color range : Limited
Audio
ID : 2
Format : MPEG Audio
Format version : Version 1
Format profile : Layer 2
Codec ID : A_MPEG/L2
Codec ID/Hint : MP2
Duration : 1h 11mn
Bit rate mode : Constant
Bit rate : 256 Kbps
Channel(s) : 2 channels
Sampling rate : 48.0 KHz
Compression mode : Lossy
Stream size : 131 MiB (10%)
Language : English
Default : Yes
Forced : No

Скриншоты

[teatrix.ru].t12387.torrent 
Торрент: Зарегистрирован [ 2015-12-27 08:35 ] · 7BFBC6306D3BF00AED0B0B086F3255DBE6D624F3

Скачать .torrent

Скачать

13 KB

Статус: проверено
Скачан: 0 раз
Размер: 1.25 GB
terms.php



Быстрый ответ

Имя:

      
Для отправки сообщений необходимо включить JavaScript
Показать сообщения:    

Текущее время: 04-Дек 17:14

Часовой пояс: UTC + 3


Вы можете начинать темы
Вы можете отвечать на сообщения
Вы не можете редактировать свои сообщения
Вы не можете удалять свои сообщения
Вы не можете голосовать в опросах
Вы не можете прикреплять файлы к сообщениям
Вы можете скачивать файлы