Однажды в Яффо \\ Яффа / Kalat Hayam \\ Jaffa (Керен Едайя / Keren Yedaya) [2009, Израиль, драма, SATRip] + Sub Rus + Original Heb


Статистика раздачи [Обновить пиров]
Размер:  1.64 GB   |    Зарегистрирован:  11 месяцев 11 дней   |    Скачан:  0 раз

Полного источника не было: Никогда

Личеров:  3  [  0 KB/s  ]   Подробная статистика пиров
 
   
 
 
 

[Цитировать]

Однажды в Яффо \ Яффа / Kalat Hayam \ Jaffa
Страна: Израиль
Жанр: драма
Год выпуска: 2009
Продолжительность: 01:40:44
Перевод: Субтитры
Cубтитры: русские
Оригинальная аудиодорожка: иврит
Режиссер: Керен Едайя / Keren Yedaya
В ролях: Дана Ивги, Мони Мошонов, Ронит Элькабец, Махмуд Шалаби, Хуссейн Яссин Махайне, Рои Ассаф
Описание: В самом сердце Яффо, Реувен содержит семейные бизнес - автомастерскую. Его дочь, Мали, и сын, Меир, работают вместе с ним, а так же, двое палестинцев, Хасан и его сын Таофик. Отношения между семействами, на первый взгляд, хорошие и дружественные, но на самом деле им не чужда ненависть, зависть и ксенофобия. И вот, в этом бурлящей страстями мастерской, происходит, наверное, предсказуемое – Мали и Таофик влюбляются друг в друга.
История их любви, которая зародилась еще в детские годы, внезапно превратилась в страстный роман, который влюбленные вынуждены держать в тайне. Каждый вечер они прячутся в автомобиле Таофика, мечтают и строят планы на будущее. Им ясно, что если семьям станет известно о запретной связи, то это будет ее конец.
Доп. информация: Огромное спасибо abraka за предоставленную запись.
Сэмпл: http://multi-up.com/1081186
Качество видео: SATRip
Формат видео: AVI
Видео: Xvid 704x400 25fps 2195kbps [V: mpeg4 simple profile, yuv420p, 704x400, 2195 kb/s]
Аудио: MP3 48000Hz stereo 128kbps [A: mp3, 48000 Hz, stereo, 128 kb/s]
Формат субтитров: hardsub (неотключаемые)

MediaInfo

General
Complete name : C:\Downloads\Однажды в Яффо.avi
Format : AVI
Format/Info : Audio Video Interleave
File size : 1.64 GiB
Duration : 1h 40mn
Overall bit rate : 2 333 Kbps
Writing library : VirtualDub-MPEG2 build 24600/release
Video
ID : 0
Format : MPEG-4 Visual
Format profile : Simple@L5
Format settings, BVOP : No
Format settings, QPel : No
Format settings, GMC : No warppoints
Format settings, Matrix : Default (H.263)
Codec ID : XVID
Codec ID/Hint : XviD
Duration : 1h 40mn
Bit rate : 2 195 Kbps
Width : 704 pixels
Height : 400 pixels
Display aspect ratio : 16:9
Frame rate : 25.000 fps
Color space : YUV
Chroma subsampling : 4:2:0
Bit depth : 8 bits
Scan type : Progressive
Compression mode : Lossy
Bits/(Pixel*Frame) : 0.312
Stream size : 1.54 GiB (94%)
Writing library : XviD 73
Audio
ID : 1
Format : MPEG Audio
Format version : Version 1
Format profile : Layer 3
Mode : Joint stereo
Mode extension : MS Stereo
Codec ID : 55
Codec ID/Hint : MP3
Duration : 1h 40mn
Bit rate mode : Constant
Bit rate : 128 Kbps
Channel(s) : 2 channels
Sampling rate : 48.0 KHz
Compression mode : Lossy
Stream size : 92.2 MiB (5%)
Alignment : Split accross interleaves
Interleave, duration : 40 ms (1.00 video frame)
Interleave, preload duration : 500 ms

Скриншоты




[teatrix.ru].t12391.torrent 
Торрент: Зарегистрирован [ 2015-12-27 12:45 ] · 41BCBB28BE72057C8FCD5F7D89A858E7A72D5977

Скачать .torrent

Скачать

17 KB

Статус: проверено
Скачан: 0 раз
Размер: 1.64 GB
terms.php



Быстрый ответ

Имя:

      
Для отправки сообщений необходимо включить JavaScript
Показать сообщения:    

Текущее время: 08-Дек 07:08

Часовой пояс: UTC + 3


Вы можете начинать темы
Вы можете отвечать на сообщения
Вы не можете редактировать свои сообщения
Вы не можете удалять свои сообщения
Вы не можете голосовать в опросах
Вы не можете прикреплять файлы к сообщениям
Вы можете скачивать файлы