О любви / About love (Дарежан Омирбаев / Darezhan Omirbayev) [2006, Казахстан, Южная Корея, драма, DVDRip]


Статистика раздачи [Обновить пиров]
Размер:  540 MB   |    Зарегистрирован:  11 месяцев 13 дней   |    Скачан:  0 раз

Полного источника не было: Никогда

 
   
 
 
 

[Цитировать]

О любви / About love
Страна: Казахстан, Южная Корея
Жанр: драма
Год выпуска: 2006
Продолжительность: 00:37:40
Перевод: Не требуется
Cубтитры: английские

Режиссер: Дарежан Омирбаев / Darezhan Omirbayev
В ролях: Айнур Тургамбаева, Кайрат Махмедов, Канат Куантай
Описание: Кайрат, учитель математики, случайно встречается со старым университетским приятелем Аскаром. Аскар приглашает друга домой и знакомит со своей женой Тогжан, в которую Кайрат влюбляется.
Сценарий основан на расказе А.П.Чехова "О любви"

Качество видео: DVDRip
Формат видео: AVI
Видео: 720x400 (1.80:1), 29.970 fps, XviD build 73 ~1799 kbps avg, 0.21 bit/pixel
Аудио: 48 kHz, AC3 Dolby Digital, 2/0 (L,R) ch, ~192 kbps
Формат субтитров: hardsub (неотключаемые)

MediaInfo

Общее
Полное имя : H:\About.love.2006.dvdrip_[teko].avi
Формат : AVI
Формат/Информация : Audio Video Interleave
Размер файла : 540 Мбайт
Продолжительность : 37 м.
Общий поток : 2004 Кбит/сек
Программа кодирования : VirtualDubMod 1.5.10.3 | www.virtualdub-fr.org || (build 2550/release)
Библиотека кодирования : VirtualDubMod build 2550/release
Видео
Идентификатор : 0
Формат : MPEG-4 Visual
Профиль формата : Advanced Simple@L5
Параметр BVOP формата : 1
Параметр QPel формата : Нет
Параметр GMC формата : Без точки перехода
Параметр матрицы формата : Выборочная
Идентификатор кодека : XVID
Идентификатор кодека/Подсказка : XviD
Продолжительность : 37 м.
Битрейт : 1800 Кбит/сек
Ширина : 720 пикселей
Высота : 400 пикселей
Соотношение сторон : 16:9
Частота кадров : 29,970 кадров/сек
Цветовое пространство : YUV
Субдискретизация насыщенности : 4:2:0
Битовая глубина : 8 бит
Тип развёртки : Прогрессивная
Метод сжатия : С потерями
Бит/(Пиксели*Кадры) : 0.209
Размер потока : 485 Мбайт (90%)
Библиотека кодирования : XviD 73
Аудио
Идентификатор : 1
Формат : AC-3
Формат/Информация : Audio Coding 3
Расширение режима : CM (complete main)
Параметр Endianness формата : Big
Идентификатор кодека : 2000
Продолжительность : 37 м.
Вид битрейта : Постоянный
Битрейт : 192 Кбит/сек
Каналы : 2 канала
Расположение каналов : Front: L R
Частота : 48,0 КГц
Битовая глубина : 16 бит
Метод сжатия : С потерями
Размер потока : 51,7 Мбайт (10%)
Выравнивание : Разделение по промежуткам
Продолжительность промежутка : 33 мс. (1,00 видеокадр)
Время предзагрузки промежутка : 500 мс.

Скриншоты

[teatrix.ru].t12392.torrent 
Торрент: Зарегистрирован [ 2015-12-27 12:45 ] · E04A576C9C2091293B055731A28546364E886060

Скачать .torrent

Скачать

11 KB

Статус: проверено
Скачан: 0 раз
Размер: 540 MB
terms.php



Быстрый ответ

Имя:

      
Для отправки сообщений необходимо включить JavaScript
Показать сообщения:    

Текущее время: 09-Дек 22:28

Часовой пояс: UTC + 3


Вы можете начинать темы
Вы можете отвечать на сообщения
Вы не можете редактировать свои сообщения
Вы не можете удалять свои сообщения
Вы не можете голосовать в опросах
Вы не можете прикреплять файлы к сообщениям
Вы можете скачивать файлы