Второе Я (Нина Шорина) [1989, СССР, Союзмультфильм, Мультфильм, DVB]


 

[Цитировать]

Второе Я
Страна: СССР, Союзмультфильм
Жанр: Мультфильм
Продолжительность: 00:09:25
Год выпуска: 1989
Перевод: Не требуется
Русские субтитры: нет
Режиссёр: Нина Шорина
Описание: Героиня фильма, обременённая неустойчивым бытом, находит отдохновение, соприкасаясь с прекрасным миром произведений великого Рембрандта. В фильме использованы репродукции с гравюр и картин Рембрандта.


Качество: DVB
Формат: MPEG-TS
Видео: MPEG Video, 2949 kbps, 704x576 (1.333), 25 fps
Аудио: MPEG Audio, 160 kbps 2 ch, 48 kHz
Субтитры: Отсутствуют

Подробные технические данные

ОбщееИдентификатор : 1 (0x1)Полное имя : D:\00-Второе Я\Второе Я-Sat.tsФормат : MPEG-TSРазмер файла : 221 МбайтПродолжительность : 9 м. 25 с.Режим общего битрейта : ПеременныйОбщий поток : 3272 Кбит/сек
ВидеоИдентификатор : 1310 (0x51E)Идентификатор меню : 310 (0x136)Формат : MPEG VideoВерсия формата : Version 2Профиль формата : Main@MainПараметр BVOP формата : ДаПараметр матрицы формата : ВыборочнаяПараметр GOP формата : VariableСтруктура изображения : FrameИдентификатор кодека : 2Продолжительность : 9 м. 25 с.Вид битрейта : ПеременныйБитрейт : 2949 Кбит/секМаксимальный битрейт : 15,0 Мбит/секШирина : 704 пикселяВысота : 576 пикселейСоотношение сторон : 4:3Частота кадров : 25,000 кадров/секСтандарт вещания : PALЦветовое пространство : YUVСубдискретизация насыщенности : 4:2:0Битовая глубина : 8 битТип развёртки : ЧересстрочнаяПорядок развёртки : Верхнее поле первоеМетод сжатия : С потерямиБит/(Пиксели*Кадры) : 0.291Временной код первого кадра : 00:00:00:00Оригинал временного кода : Group of pictures headerGOP, открыто/закрыто : ОткрытоGOP, открыто/закрыто на первом кадре : ЗакрытоРазмер потока : 199 Мбайт (90%)
АудиоИдентификатор : 2310 (0x906)Идентификатор меню : 310 (0x136)Формат : MPEG AudioВерсия формата : Version 1Профиль формата : Layer 2Идентификатор кодека : 3Продолжительность : 9 м. 25 с.Вид битрейта : ПостоянныйБитрейт : 160 Кбит/секКаналы : 2 каналаЧастота : 48,0 КГцМетод сжатия : С потерямиРазмер потока : 10,8 Мбайт (5%)Язык : Russian

Скриншоты




Показать сообщения:    

Текущее время: 05-Дек 03:29

Часовой пояс: UTC + 3


Вы не можете начинать темы
Вы не можете отвечать на сообщения
Вы не можете редактировать свои сообщения
Вы не можете удалять свои сообщения
Вы не можете голосовать в опросах
Вы не можете прикреплять файлы к сообщениям
Вы не можете скачивать файлы