[TR24][OF] Jonas Kaufmann, Helmut Deutsch - Franz Schubert - Winterreise D911 - 2014 (Vocal)


Статистика раздачи [Обновить пиров]
Размер:  1.08 GB   |    Зарегистрирован:  11 месяцев 8 дней   |    Скачан:  1 раз

Полного источника не было: 11 месяцев 7 дней

Личеров:  6  [  0 KB/s  ]   Подробная статистика пиров
 
   
 
 
 

[Цитировать]

Jonas Kaufmann, Helmut Deutsch / Franz Schubert - Winterreise D911
Формат записи/Источник записи: [TR24][OF]
Наличие водяных знаков: Нет
Год издания/переиздания диска: 2014
Жанр: Vocal
Издатель(лейбл): Sony Classical
Продолжительность: 70 min
Наличие сканов в содержимом раздачи: Нет
Треклист:
01 Winterreise, D911: Gute Nacht 00:05:35
02 Winterreise, D911: Die Wetterfahne 00:01:41
03 Winterreise, D911: Gefrorne Tränen 00:02:23
04 Winterreise, D911: Erstarrung 00:02:59
05 Winterreise, D911: Der Lindenbaum 00:04:36
06 Winterreise, D911: Wasserflut 00:03:49
07 Winterreise, D911: Auf dem Flusse 00:03:34
08 Winterreise, D911: Rückblick 00:02:12
09 Winterreise, D911: Irrlicht 00:02:46
10 Winterreise, D911: Rast 00:03:05
11 Winterreise, D 911: Frühlingstraum 00:03:56
12 Winterreise, D911: Einsamkeit 00:02:40
13 Winterreise, D911: Die Post 00:02:12
14 Winterreise, D911: Der greise Kopf 00:02:44
15 Winterreise, D911: Die Krähe 00:02:03
16 Winterreise, D911: Letzte Hoffnung 00:02:04
17 Winterreise, D911: Im Dorfe 00:02:55
18 Winterreise, D911: Der stürmische Morgen 00:00:52
19 Winterreise, D911: Täuschung 00:01:37
20 Winterreise, D911: Der Wegweiser 00:04:01
21 Winterreise, D911: Das Wirtshaus 00:04:22
22 Winterreise, D911: Mut 00:01:20
23 Winterreise, D911: Die Nebensonnen 00:02:37
24 Winterreise, D911: Der Leiermann00:04:00
Контейнер: FLAC (*.flac)
Тип рипа: tracks
Разрядность: 24/96
Формат: flac
Количество каналов: 2.0

Лог проверки качества

foobar2000 1.2.2 / Замер динамического диапазона (DR) 1.1.1Дата отчёта: 2015-12-05 10:15:59
--------------------------------------------------------------------------------Анализ: Jonas Kaufmann/Christian Starke / Schubert: Winterreise D911--------------------------------------------------------------------------------
DR Пики RMS Продолжительность трека--------------------------------------------------------------------------------DR15 -8.14 дБ -28.79 дБ 5:36 ?-Winterreise, D911: Gute NachtDR13 -0.11 дБ -20.50 дБ 1:41 ?-Winterreise, D911: Die WetterfahneDR15 -0.87 дБ -22.42 дБ 2:24 ?-Winterreise, D911: Gefrorne TränenDR15 -1.68 дБ -21.20 дБ 3:00 ?-Winterreise, D911: ErstarrungDR15 -6.48 дБ -28.36 дБ 4:37 ?-Winterreise, D911: Der LindenbaumDR15 -1.43 дБ -24.08 дБ 3:49 ?-Winterreise, D911: WasserflutDR14 -0.40 дБ -21.93 дБ 3:35 ?-Winterreise, D911: Auf dem FlusseDR15 -4.03 дБ -23.48 дБ 2:13 ?-Winterreise, D911: RückblickDR15 -4.14 дБ -28.88 дБ 2:47 ?-Winterreise, D911: IrrlichtDR16 -3.44 дБ -26.70 дБ 3:05 ?-Winterreise, D911: RastDR17 0.00 дБ -26.11 дБ 3:57 ?-Winterreise, D 911: FrühlingstraumDR15 -3.24 дБ -24.89 дБ 2:41 ?-Winterreise, D911: EinsamkeitDR14 -0.41 дБ -20.87 дБ 2:13 ?-Winterreise, D911: Die PostDR14 -4.31 дБ -28.11 дБ 2:44 ?-Winterreise, D911: Der greise KopfDR14 -3.26 дБ -26.75 дБ 2:04 ?-Winterreise, D911: Die KräheDR15 -3.44 дБ -25.61 дБ 2:05 ?-Winterreise, D911: Letzte HoffnungDR14 -9.46 дБ -29.45 дБ 2:55 ?-Winterreise, D911: Im DorfeDR14 -2.16 дБ -20.20 дБ 0:52 ?-Winterreise, D911: Der stürmische MorgenDR13 -12.52 дБ -31.12 дБ 1:37 ?-Winterreise, D911: TäuschungDR15 -5.23 дБ -27.94 дБ 4:01 ?-Winterreise, D911: Der WegweiserDR14 -7.76 дБ -29.21 дБ 4:22 ?-Winterreise, D911: Das WirtshausDR13 -2.34 дБ -20.32 дБ 1:20 ?-Winterreise, D911: MutDR13 -4.89 дБ -24.79 дБ 2:37 ?-Winterreise, D911: Die NebensonnenDR12 -10.02 дБ -35.80 дБ 4:01 ?-Winterreise, D911: Der Leiermann--------------------------------------------------------------------------------
Количество треков: 24Реальные значения DR: DR14
Частота: 96000 ГцКаналов: 2Разрядность: 24Битрейт: 1926 кбит/сКодек: FLAC================================================================================
Источник (релизер): http://www.qobuz.com/fr-fr/album/schubert-winterrei...nn/0886444231558
Композитор: Franz Schubert
Исполнитель:
Jonas Kaufmann (tenor)
Helmut Deutsch (piano)
[teatrix.ru].t12396.torrent 
Торрент: Зарегистрирован [ 2015-12-27 12:45 ] · 45511B4031FF109971D4374F2A1C9690969D0906

Скачать .torrent

Скачать

13 KB

Статус: проверено
Скачан: 1 раз
Размер: 1.08 GB
terms.php



Быстрый ответ

Имя:

      
Для отправки сообщений необходимо включить JavaScript
Показать сообщения:    

Текущее время: 05-Дек 05:30

Часовой пояс: UTC + 3


Вы можете начинать темы
Вы можете отвечать на сообщения
Вы не можете редактировать свои сообщения
Вы не можете удалять свои сообщения
Вы не можете голосовать в опросах
Вы не можете прикреплять файлы к сообщениям
Вы можете скачивать файлы