Вы моя тема / Vous etes mon sujet (Доминик Тьель / Dominique Thiel, Ален Сакс / Alain Sachs) [2015, Франция, комедия, DVB] [Theatre de La Garenne-Colombes] Original (Fre) + Sub (Rus, Eng, Fre, Deu)


 

[Цитировать]

Вы моя тема
Vous êtes mon sujet- Название театра: Théâtre de La Garenne-Colombes
Страна: Франция
Жанр: комедия
Год выпуска: 2015
Продолжительность: 01:46:17
Перевод: Субтитры (русский перевод И.Рыбкиной, Éclair Media)
Cубтитры: русские, английские, французские, немецкие, нидерландские, румынские
Оригинальная аудиодорожка: французский
Режиссёр: Доминик Тьель / Dominique Thiel
Режиссёр-постановщик: Ален Сакс / Alain Sachs
В ролях: Жерар Дармон / Gérard Darmon (Alexandre), Жюли-Мари Парментье / Julie-Marie Parmentier (Mathilde), Женевьев Казиль / Geneviève Casile (Myriam), Филипп Леллуш / Philippe Lellouche (le lieutenant de police), Жюстин Тибода / Justine Thibaudat (Nadège)
Описание: По одноименной пьесе Гонкуровского лауреата Дидье ван Ковелера / Didier van Cauwelaert (2015).
Находящаяся где-то между комедией и триллером пьеса "Вы моя тема" рассказывает о противоборстве между маститым писателем и юной студенткой литературного факультета. 50-летний Александр Керн окружен успехом и почестями после нескольких лет тяжелого труда. Его последний бестселлер вдохновлен трагическими событиями собственной жизни: смерть жены от несчастного случая спасла писателя от разорительного развода. Теперь он безбедно живет вдвоем с 17-летней дочерью. На книжном аукционе он знакомится с Матильдой, привлекательной молодой женщиной, студенткой, собирающейся написать о нем диссертацию и открыть всем его истинное лицо…
Доп. информация: Hot Bird (13.0°E) TV5MONDE Europe DVB-S. Съемки спектакля, состоявшегося 17 февраля 2015 года в Théâtre de La Garenne-Colombes.

Качество видео: DVB
Формат видео: MKV
Видео: MPEG Video 2, 720x576@1024x576 (16:9), 25 fps, ~2884 kbps avg, 0.278 bit/pixel
Аудио: MPEG Audio 2, 2 ch, 48 kHz, 192 kbps - французский
Формат субтитров: prerendered (IDX+SUB)

MediaInfo

ОбщееУникальный идентификатор : 233186963803369699460513943418911818754 (0xAF6E2CF5A06C0A41AADA2F7C36738402)Полное имя : F:\My Torrents 3\[apreder]Vous_etes_mon_sujet(2015)DVB.mkvФормат : MatroskaВерсия формата : Version 2Размер файла : 2,33 ГбайтПродолжительность : 1 ч. 46 м.Режим общего битрейта : ПеременныйОбщий поток : 3139 Кбит/секНазвание фильма : Vous etes mon sujetДата выпуска : 2015-00-00Дата кодирования : UTC 2015-12-27 10:37:04Программа кодирования : mkvmerge v8.6.1 ('Flying') 64bitБиблиотека кодирования : libebml v1.3.3 + libmatroska v1.4.4Attachements : cover.png / cover_small.pngACTOR : Gérard DarmonDIRECTOR : Dominique Thiel, Alain SachsGENRE : ComedyKEYWORDS : LAW_RATING : 16+WRITTEN_BY : Didier van Cauwelaert
ВидеоИдентификатор : 1Формат : MPEG VideoВерсия формата : Version 2Профиль формата : Main@MainПараметр BVOP формата : ДаПараметр матрицы формата : ВыборочнаяПараметр GOP формата : M=4, N=12Format_Settings_PictureStructure : FrameИдентификатор кодека : V_MPEG2Идентификатор кодека/Информация : MPEG 1 or 2 VideoПродолжительность : 1 ч. 46 м.Вид битрейта : ПеременныйБитрейт : 2884 Кбит/секШирина : 720 пикселейВысота : 576 пикселейСоотношение сторон : 16:9Режим частоты кадров : ПостоянныйЧастота кадров : 25,000 кадров/секСтандарт вещания : PALЦветовое пространство : YUVСубдискретизация насыщенности : 4:2:0Битовая глубина : 8 битТип развёртки : ЧересстрочнаяПорядок развёртки : Верхнее поле первоеМетод сжатия : С потерямиБит/(Пиксели*Кадры) : 0.278Временной код первого кадра : 00:00:00:00Оригинал временного кода : Group of pictures headerРазмер потока : 2,14 Гбайт (92%)Default : ДаForced : Нет
АудиоИдентификатор : 2Формат : MPEG AudioВерсия формата : Version 1Профиль формата : Layer 2Режим : Joint stereoРасширение режима : Intensity Stereo + MS StereoИдентификатор кодека : A_MPEG/L2Идентификатор кодека/Подсказка : MP2Продолжительность : 1 ч. 46 м.Вид битрейта : ПостоянныйБитрейт : 192 Кбит/секКаналы : 2 каналаЧастота : 48,0 КГцМетод сжатия : С потерямиРазмер потока : 146 Мбайт (6%)Язык : FrenchDefault : ДаForced : Нет
Текст #1Идентификатор : 3Формат : VobSubИдентификатор кодека : S_VOBSUBИдентификатор кодека/Информация : Picture based subtitle format used on DVDsЯзык : RussianDefault : ДаForced : Нет
Текст #2Идентификатор : 4Формат : VobSubИдентификатор кодека : S_VOBSUBИдентификатор кодека/Информация : Picture based subtitle format used on DVDsЯзык : EnglishDefault : НетForced : Нет
Текст #3Идентификатор : 5Формат : VobSubИдентификатор кодека : S_VOBSUBИдентификатор кодека/Информация : Picture based subtitle format used on DVDsЯзык : FrenchDefault : НетForced : Нет
Текст #4Идентификатор : 6Формат : VobSubИдентификатор кодека : S_VOBSUBИдентификатор кодека/Информация : Picture based subtitle format used on DVDsЯзык : GermanDefault : НетForced : Нет
Текст #5Идентификатор : 7Формат : VobSubИдентификатор кодека : S_VOBSUBИдентификатор кодека/Информация : Picture based subtitle format used on DVDsЯзык : DutchDefault : НетForced : Нет
Текст #6Идентификатор : 8Формат : VobSubИдентификатор кодека : S_VOBSUBИдентификатор кодека/Информация : Picture based subtitle format used on DVDsЯзык : RomanianDefault : НетForced : Нет

Скриншот с названием постановки

Скриншоты


Резервные скриншоты





Показать сообщения:    

Текущее время: 11-Дек 11:00

Часовой пояс: UTC + 3


Вы не можете начинать темы
Вы не можете отвечать на сообщения
Вы не можете редактировать свои сообщения
Вы не можете удалять свои сообщения
Вы не можете голосовать в опросах
Вы не можете прикреплять файлы к сообщениям
Вы не можете скачивать файлы