Christmas in Vienna (Adolphe Adam, Глинка, Bizet, Delibes, Bruckner, Kodaly, Gruber ...) (Natalia Ushakova, Vesselina Kasarova, Dmitry Korchak, Artur Rucinski, ORF Radio-Symphonieorchester Wien, Sascha Goetzel) [2014, Classical / Choral, HDTV 720p]


 

[Цитировать]

Christmas in Vienna 2014
Sascha Goetzel • ORF Radio-Symphonieorchester Wien

-
Год выпуска: 2014
Лейбл: ORF, arte
Жанр: Classical / Choral
Продолжительность: 01:29:39
Режиссер: Karina Fibich (bildregie)
Исполнители:
Solisten:
Natalia Ushakova / Наталья Ушакова - soprano
Vesselina Kasarova - mezzo-soprano
Dmitry Korchak / Дмитрий Корчак - tenor
Artur Ruciński - bariton
Solist Medley:
Sebastian Huppmann
Wiener Sängerknaben
Wiener Singakademie
ORF Radio-Symphonieorchester Wien
Sascha Goetzel - musikalische leitung
Треклист:
- Adolphe Adam - O Holy Night
- Михаил Глинка - Ruslan und Ludmila (Ouvertüre)
- Жорж Бизе - Au fond du temple saint (Duett aus der Oper "Les pêcheurs de perles")
- Leo Delibes - Sous le dôme épais ("Blumenduett" aus der Oper "Lakmé")
- Anton Bruckner - Virga Jes se floruit (Motette, WAB 52)
- Maurice Ravel - Ma Mère l'Oye - Le jardin féerique (Nr. 5 der Suite für Orchester)
- Scharo und der erste Schnee (Bulgarisches Weihnachtslied)
- Weigenlied (Polnisches Weihnachtslied)
- Am Weihnachtsbaum die Lichter brennen (Traditional)
- Ein Tannenbäumch en wurde im Wald geboren (Russisches Weihnachtslied)
- Pietro Yon - Gesu Bambino
- Zoltan Kodaly - Unter den Bergen von Csitári
- Kling, Glöckchen, klingelingeling (Deutsches Volkslied)
- Andy Williams - It's the most wonderful time of the year
- George Michael - Last Christmas
- Jose Feliciano - Feliz Navidad
- Georg Friedrich Handel - Hallelujah (Chor Nr. 39 aus dem Oratorium "Messiah", HWV 56)
- Franz Xaver Gruber - Stille Nacht, heilige Nacht
Доп. информация:
Aus dem Wiener Konzerthaus
Christmas in Vienna 2014 christmasinvienna.at
Christmas in Vienna 2014 3sat.de
ORF Radio-Symphonieorchester Wien Official Site
ORF Radio-Symphonieorchester Wien from Wikipedia, the free encyclopedia
Sascha Goetzel Official Site
Sascha Goetzel from Wikipedia, the free encyclopedia
Natalia Ushakova Official Site
Natalia Ushakova from Wikipedia, the free encyclopedia
Dmitry Korchak Official Site
Дмитрий Корчак материал из Википедии - свободной энциклопедии
Качество видео: HDTV 720p
Контейнер: TS
Видео кодек: H.264
Аудио кодек: AC3
Видео поток: 12.8 Mbps, 1280*720 (16:9), at 50.000 fps, AVC (High@L4.0) (CABAC / 6 Ref Frames)
Аудио поток: German, 256 Kbps, 48.0 KHz, 2 channels, MPEG Audio (Version 1) (Layer 2)
Аудио 2: 192 Kbps, 48.0 KHz, 2 channels, MPEG Audio (Version 1) (Layer 2)
Аудио 3: German, 448 Kbps, 48.0 KHz, 16 bits, 6 channels, AC-3
Аудио 4: Multiple languages, 192 Kbps, 48.0 KHz, 2 channels, MPEG Audio (Version 1) (Layer 2)
Источник: Digital Satellite > SkyStar HD2 (TechniSat) > raw data to HDD > Cypheros TS-Doctor > Smart Cutter (cut) > ts

MediaInfo

GeneralID : 8900 (0x22C4)Complete name : C:\3sat HD_Christmas in Vienna 2014.tsFormat : MPEG-TSFile size : 9.18 GiBDuration : 1h 29mnOverall bit rate mode : VariableOverall bit rate : 14.7 Mbps
VideoID : 6510 (0x196E)Menu ID : 11150 (0x2B8E)Format : AVCFormat/Info : Advanced Video CodecFormat profile : High@L4.0Format settings, CABAC : YesFormat settings, ReFrames : 6 framesCodec ID : 27Duration : 1h 29mnBit rate : 12.8 MbpsWidth : 1 280 pixelsHeight : 720 pixelsDisplay aspect ratio : 16:9Frame rate : 50.000 fpsColor space : YUVChroma subsampling : 4:2:0Bit depth : 8 bitsScan type : ProgressiveBits/(Pixel*Frame) : 0.278Stream size : 8.03 GiB (88%)Color primaries : BT.709Transfer characteristics : BT.709Matrix coefficients : BT.709
Audio #1ID : 6520 (0x1978)Menu ID : 11150 (0x2B8E)Format : MPEG AudioFormat version : Version 1Format profile : Layer 2Codec ID : 3Duration : 1h 29mnBit rate mode : ConstantBit rate : 256 KbpsChannel(s) : 2 channelsSampling rate : 48.0 KHzCompression mode : LossyDelay relative to video : -5msStream size : 164 MiB (2%)Language : German
Audio #2ID : 6521 (0x1979)Menu ID : 11150 (0x2B8E)Format : MPEG AudioFormat version : Version 1Format profile : Layer 2Codec ID : 3Duration : 1h 29mnBit rate mode : ConstantBit rate : 192 KbpsChannel(s) : 2 channelsSampling rate : 48.0 KHzCompression mode : LossyDelay relative to video : -5msStream size : 123 MiB (1%)
Audio #3ID : 6522 (0x197A)Menu ID : 11150 (0x2B8E)Format : AC-3Format/Info : Audio Coding 3Mode extension : CM (complete main)Format settings, Endianness : BigCodec ID : 6Duration : 1h 29mnBit rate mode : ConstantBit rate : 448 KbpsChannel(s) : 6 channelsChannel positions : Front: L C R, Side: L R, LFESampling rate : 48.0 KHzBit depth : 16 bitsCompression mode : LossyDelay relative to video : -28msStream size : 287 MiB (3%)Language : German
Audio #4ID : 6523 (0x197B)Menu ID : 11150 (0x2B8E)Format : MPEG AudioFormat version : Version 1Format profile : Layer 2Codec ID : 3Duration : 1h 29mnBit rate mode : ConstantBit rate : 192 KbpsChannel(s) : 2 channelsSampling rate : 48.0 KHzCompression mode : LossyDelay relative to video : -21msStream size : 123 MiB (1%)Language : Multiple languages
... info ...">

Скриншоты ... info ...


Christmas in Vienna
Stimmungsvoller kann ein Adventskonzert kaum sein: Das traditionelle "Christmas in Vienna" fand auch 2014 wieder im Wiener Konzerthaus statt und verbreitet Weihnachtsvorfreude pur.
Und auch 2014 traten vier internationale Sängergrößen auf: die gebürtige bulgarische Mezzosopranistin Vesselina Kasarova, die russisch-österreichische Sopranistin Natalia Ushakova, der russische Tenor Dmitry Korchak und der junge polnische Bariton Artur Ruciński.
Gemeinsam präsentiert das hochkarätige Solistenquartett ein Programm, das sowohl das klassische weihnachtliche Repertoire - von Schubert über Brahms bis Dvořák - als auch populäre Weihnachtslieder aus aller Welt bietet. Zum Abschluss darf der Klassiker schlechthin - "Stille Nacht, heilige Nacht" - natürlich nicht fehlen. Neben der Wiener Singakademie sind auch die Wiener Sängerknaben wieder dabei. Begleitet werden sie vom ORF-Radio-Symphonieorchester Wien unter der Leitung von Sascha Goetzel.
~ 3sat.de



Показать сообщения:    

Текущее время: 05-Дек 19:38

Часовой пояс: UTC + 3


Вы не можете начинать темы
Вы не можете отвечать на сообщения
Вы не можете редактировать свои сообщения
Вы не можете удалять свои сообщения
Вы не можете голосовать в опросах
Вы не можете прикреплять файлы к сообщениям
Вы не можете скачивать файлы