(Opera) Pietro Mascagni - Cavalleria Rusticana / Пьетро Масканьи - Сельская честь (Lamberto Gardelli; Martina Arroyo, Franco Bonisolli, Bernd Weikl, Livia Budai, Juliana Falk), 1981 - Studio recording / FLAC (tracks), lossless


 

[Цитировать]

Pietro Mascagni - Cavalleria Rusticana / Пьетро Масканьи - Сельская честь (Lamberto Gardelli; Martina Arroyo, Franco Bonisolli, Bernd Weikl, Livia Budai, Juliana Falk)
Жанр: Opera
Страна-производитель диска: CША
Год издания диска: 1998
Издатель (лейбл): RCA Classics
Дата записи: 1981
Аудиокодек: FLAC
Тип рипа: tracks
Битрейт аудио: lossless
Продолжительность: 74:38
Источник: релизер (Davide)
Исполнители:
Santuzza - Martina Arroyo,
Turiddu - Franco Bonisolli,
Alfio - Bernd Weikl,
Lola - Livia Budai,
Lucia - Juliana Falk.
Conductor - Lamberto Gardelli
Orchestra and Chorus of Bayerischen Rundfunks
Recorded on February 1981, at Munich.

Лог создания рипа

Exact Audio Copy V1.0 beta 3 from 29. August 2011
EAC extraction logfile from 22. November 2015, 19:09
Munchner Rundfunkorchester, Lamberto Gardelli / Cavalleria rusticana
Used drive : hp DVDRW DU8A5SHL Adapter: 0 ID: 0
Read mode : SecureUtilize accurate stream : YesDefeat audio cache : YesMake use of C2 pointers : No
Read offset correction : 6Overread into Lead-In and Lead-Out : NoFill up missing offset samples with silence : YesDelete leading and trailing silent blocks : NoNull samples used in CRC calculations : YesUsed interface : Native Win32 interface for Win NT & 2000Gap handling : Appended to previous track
Used output format : User Defined EncoderSelected bitrate : 768 kBit/sQuality : HighAdd ID3 tag : NoCommand line compressor : C:\Program Files (x86)\Exact Audio Copy\FLAC\FLAC.EXEAdditional command line options : -6 -V -T "ARTIST=%artist%" -T "TITLE=%title%" -T "ALBUM=%albumtitle%" -T "DATE=%year%" -T "TRACKNUMBER=%tracknr%" -T "GENRE=%genre%" -T "COMMENT=%comment%" -T "BAND=%albuminterpret%" -T "ALBUMARTIST=%albuminterpret%" -T "COMPOSER=%composer%" %haslyrics%--tag-from-file=LYRICS="%lyricsfile%"%haslyrics% -T "DISCNUMBER=%cdnumber%" -T "TOTALDISCS=%totalcds%" -T "TOTALTRACKS=%numtracks%" %hascover%--picture="%coverfile%"%hascover% %source% -o %dest%
TOC of the extracted CD
Track | Start | Length | Start sector | End sector --------------------------------------------------------- 1 | 0:00.32 | 7:41.60 | 32 | 34666 2 | 7:42.17 | 8:10.23 | 34667 | 71439 3 | 15:52.40 | 6:53.67 | 71440 | 102481 4 | 22:46.32 | 7:36.03 | 102482 | 136684 5 | 30:22.35 | 5:28.15 | 136685 | 161299 6 | 35:50.50 | 3:40.27 | 161300 | 177826 7 | 39:31.02 | 3:07.08 | 177827 | 191859 8 | 42:38.10 | 5:45.47 | 191860 | 217781 9 | 48:23.57 | 5:07.58 | 217782 | 240864 10 | 53:31.40 | 3:41.57 | 240865 | 257496 11 | 57:13.22 | 5:37.60 | 257497 | 282831 12 | 62:51.07 | 10:54.63 | 282832 | 331944
Track 1
Filename G:\BLOGGER\AA CD RIPPATI\Leoncavallo Pagliacci & Mascagni Cavalleria rusticana Gardelli 1983\CD2\01 Cavalleria Rusticana - O Lola, c`h ai latti la cammisa.wav
Peak level 89.5 % Extraction speed 1.3 X Track quality 99.9 % Copy CRC F5E01507 Accurately ripped (confidence 2) [58EEA2FF] (AR v1) Copy OK
Track 2
Filename G:\BLOGGER\AA CD RIPPATI\Leoncavallo Pagliacci & Mascagni Cavalleria rusticana Gardelli 1983\CD2\02 Cavalleria Rusticana - Gli aranci olezzano.wav
Peak level 54.9 % Extraction speed 1.6 X Track quality 100.0 % Copy CRC D6CAEA05 Accurately ripped (confidence 2) [A9953F30] (AR v1) Copy OK
Track 3
Filename G:\BLOGGER\AA CD RIPPATI\Leoncavallo Pagliacci & Mascagni Cavalleria rusticana Gardelli 1983\CD2\03 Cavalleria Rusticana - Dite, mamma Lucia - Il cavallo calpita.wav
Peak level 99.0 % Extraction speed 1.8 X Track quality 100.0 % Copy CRC B42AF9F0 Accurately ripped (confidence 2) [CC364B41] (AR v1) Copy OK
Track 4
Filename G:\BLOGGER\AA CD RIPPATI\Leoncavallo Pagliacci & Mascagni Cavalleria rusticana Gardelli 1983\CD2\04 Cavalleria Rusticana - Beato voi, compar Alfio.wav
Peak level 100.0 % Extraction speed 1.9 X Track quality 100.0 % Copy CRC D2C6CC1E Accurately ripped (confidence 2) [0C3194FF] (AR v1) Copy OK
Track 5
Filename G:\BLOGGER\AA CD RIPPATI\Leoncavallo Pagliacci & Mascagni Cavalleria rusticana Gardelli 1983\CD2\05 Cavalleria Rusticana - Voi lo sapete, o mamma.wav
Peak level 99.0 % Extraction speed 2.0 X Track quality 100.0 % Copy CRC BB38CF19 Accurately ripped (confidence 2) [7F53916A] (AR v1) Copy OK
Track 6
Filename G:\BLOGGER\AA CD RIPPATI\Leoncavallo Pagliacci & Mascagni Cavalleria rusticana Gardelli 1983\CD2\06 Cavalleria Rusticana - Tu qui, Santuzza.wav
Peak level 99.0 % Extraction speed 2.0 X Track quality 100.0 % Copy CRC 6456B864 Accurately ripped (confidence 2) [2C00AC01] (AR v1) Copy OK
Track 7
Filename G:\BLOGGER\AA CD RIPPATI\Leoncavallo Pagliacci & Mascagni Cavalleria rusticana Gardelli 1983\CD2\07 Cavalleria Rusticana - Fior di giaggiolo.wav
Peak level 85.4 % Extraction speed 2.0 X Track quality 100.0 % Copy CRC C72FEF73 Accurately ripped (confidence 2) [F4A4E345] (AR v1) Copy OK
Track 8
Filename G:\BLOGGER\AA CD RIPPATI\Leoncavallo Pagliacci & Mascagni Cavalleria rusticana Gardelli 1983\CD2\08 Cavalleria Rusticana - Ah, lo vedi, che hai tu detto.wav
Peak level 99.0 % Extraction speed 2.1 X Track quality 99.9 % Copy CRC AE58E7B1 Accurately ripped (confidence 2) [D103D19B] (AR v1) Copy OK
Track 9
Filename G:\BLOGGER\AA CD RIPPATI\Leoncavallo Pagliacci & Mascagni Cavalleria rusticana Gardelli 1983\CD2\09 Cavalleria Rusticana - Ah, il Singore vi manda.wav
Peak level 98.9 % Extraction speed 2.1 X Track quality 99.9 % Copy CRC A5D9D828 Accurately ripped (confidence 2) [2D2583BC] (AR v1) Copy OK
Track 10
Filename G:\BLOGGER\AA CD RIPPATI\Leoncavallo Pagliacci & Mascagni Cavalleria rusticana Gardelli 1983\CD2\10 Cavalleria Rusticana - Intermezzo sinfonico.wav
Peak level 41.7 % Extraction speed 2.0 X Track quality 99.9 % Copy CRC CFE4D4FA Accurately ripped (confidence 2) [83B6184E] (AR v1) Copy OK
Track 11
Filename G:\BLOGGER\AA CD RIPPATI\Leoncavallo Pagliacci & Mascagni Cavalleria rusticana Gardelli 1983\CD2\11 Cavalleria Rusticana - A casa, amici.wav
Peak level 99.0 % Extraction speed 2.5 X Track quality 100.0 % Copy CRC A38C1C77 Accurately ripped (confidence 2) [B45B15BF] (AR v1) Copy OK
Track 12
Filename G:\BLOGGER\AA CD RIPPATI\Leoncavallo Pagliacci & Mascagni Cavalleria rusticana Gardelli 1983\CD2\12 Cavalleria Rusticana - A voi tutti salute.wav
Peak level 91.0 % Extraction speed 2.7 X Track quality 100.0 % Copy CRC F3DBCC5A Accurately ripped (confidence 2) [741C3785] (AR v1) Copy OK
All tracks accurately ripped
No errors occurred
End of status report

Треклист

1. O, Lola! (Siciliana)
2. Gli aranci
3. Dite, mamma Lucia
4. Beato voi
5. Voi lo sapete
6. Tu qui, Santuzza
7. Fior di giaggiolo
8. Ah, lo vedi
9. Ah, il Signore
10. Intermezzo
11. A casa, amici
12. A voi tutti salute



Показать сообщения:    

Текущее время: 11-Дек 12:58

Часовой пояс: UTC + 3


Вы не можете начинать темы
Вы не можете отвечать на сообщения
Вы не можете редактировать свои сообщения
Вы не можете удалять свои сообщения
Вы не можете голосовать в опросах
Вы не можете прикреплять файлы к сообщениям
Вы не можете скачивать файлы