(Opera) Giuseppe Verdi - Aida / Джузеппе Верди - Аида (Fernando Previtali; Virginia Zeani, Grace Bumbry, Gianfranco Cecchele, Giangiacomo Guelfi, Nicola Ghiuselev), 1969 - live from Teatro di San Carlo di Napoli / FLAC (tracks+.cue), lossless


 

[Цитировать]

Giuseppe Verdi - Aida / Джузеппе Верди - Аида (Fernando Previtali; Virginia Zeani, Grace Bumbry, Gianfranco Cecchele, Giangiacomo Guelfi, Nicola Ghiuselev)
Жанр: Opera
Страна-производитель диска: Италия
Год издания диска: 2001
Издатель (лейбл): Bongiovanni
Дата записи: 1969
Аудиокодек: FLAC
Тип рипа: tracks+.cue
Битрейт аудио: lossless
Продолжительность: 124:19
Источник: релизер EL HUMILDE CAMPESINO (afinatusoidos)
Исполнители:
Aida - Virginia Zeani,
Amneris - Grace Bumbry,
Radamès - Gianfranco Cecchele,
Amonasro - Giangiacomo Guelfi,
Ramphis - Nicola Ghiuselev,
Il Re di Egitto - Enrico Campi,
Una Sacerdotessa - Eva Ruta,
Un Messaggero - Fernandino Jacopucci.
Conductor - Fernando Previtali
Orchestra and Chorus of Teatro di San Carlo di Napoli
Recorded live at Teatro San Carlo, May 18, 1969.

Лог создания рипаЛог создания рипа CD 1

Exact Audio Copy V1.0 beta 3 from 29. August 2011
EAC extraction logfile from 23. December 2015, 12:31
Artista desconocido / Título desconocido
Used drive : HL-DT-STDVDRAM GH24NSC0 Adapter: 3 ID: 0
Read mode : SecureUtilize accurate stream : YesDefeat audio cache : YesMake use of C2 pointers : No
Read offset correction : 6Overread into Lead-In and Lead-Out : NoFill up missing offset samples with silence : YesDelete leading and trailing silent blocks : NoNull samples used in CRC calculations : YesUsed interface : Native Win32 interface for Win NT & 2000Gap handling : Appended to previous track
Used output format : User Defined EncoderSelected bitrate : 768 kBit/sQuality : HighAdd ID3 tag : NoCommand line compressor : C:\Program Files (x86)\Exact Audio Copy\FLAC\FLAC.EXEAdditional command line options : -8 -V -T "ARTIST=%artist%" -T "TITLE=%title%" -T "ALBUM=%albumtitle%" -T "DATE=%year%" -T "TRACKNUMBER=%tracknr%" -T "GENRE=%genre%" -T "PERFORMER=%albuminterpret%" -T "COMPOSER=%composer%" %haslyrics%--tag-from-file=LYRICS="%lyricsfile%"%haslyrics% -T "ALBUMARTIST=%albumartist%" -T "DISCNUMBER=%cdnumber%" -T "TOTALDISCS=%totalcds%" -T "TOTALTRACKS=%numtracks%" -T "COMMENT=%comment%" %source% -o %dest%
TOC of the extracted CD
Track | Start | Length | Start sector | End sector --------------------------------------------------------- 1 | 0:00.33 | 5:19.57 | 33 | 24014 2 | 5:20.15 | 4:21.30 | 24015 | 43619 3 | 9:41.45 | 9:15.20 | 43620 | 85264 4 | 18:56.65 | 3:04.70 | 85265 | 99134 5 | 22:01.60 | 6:54.48 | 99135 | 130232 6 | 28:56.33 | 6:58.37 | 130233 | 161619 7 | 35:54.70 | 4:20.38 | 161620 | 181157 8 | 40:15.33 | 5:57.55 | 181158 | 207987 9 | 46:13.13 | 10:42.20 | 207988 | 256157 10 | 56:55.33 | 11:37.27 | 256158 | 308459 11 | 68:32.60 | 3:11.10 | 308460 | 322794 12 | 71:43.70 | 5:52.00 | 322795 | 349194
Track 1
Filename f:\Users\Guillermo\Desktop\EAC convertidos\01 Pista01.wav
Pre-gap length 0:00:02.44
Peak level 96.4 % Extraction speed 1.8 X Track quality 100.0 % Test CRC F796D897 Copy CRC F796D897 Copy OK
Track 2
Filename f:\Users\Guillermo\Desktop\EAC convertidos\02 Pista02.wav
Pre-gap length 0:00:02.00
Peak level 100.0 % Extraction speed 1.9 X Track quality 100.0 % Test CRC AC03B9DE Copy CRC AC03B9DE Copy OK
Track 3
Filename f:\Users\Guillermo\Desktop\EAC convertidos\03 Pista03.wav
Pre-gap length 0:00:02.00
Peak level 71.6 % Extraction speed 2.3 X Track quality 100.0 % Test CRC AE5B04A1 Copy CRC AE5B04A1 Copy OK
Track 4
Filename f:\Users\Guillermo\Desktop\EAC convertidos\04 Pista04.wav
Pre-gap length 0:00:02.00
Peak level 70.5 % Extraction speed 2.2 X Track quality 100.0 % Test CRC 4B29C6CF Copy CRC 4B29C6CF Copy OK
Track 5
Filename f:\Users\Guillermo\Desktop\EAC convertidos\05 Pista05.wav
Pre-gap length 0:00:02.00
Peak level 71.2 % Extraction speed 2.6 X Track quality 100.0 % Test CRC 9240CE65 Copy CRC 9240CE65 Copy OK
Track 6
Filename f:\Users\Guillermo\Desktop\EAC convertidos\06 Pista06.wav
Pre-gap length 0:00:02.00
Peak level 75.7 % Extraction speed 2.9 X Track quality 100.0 % Test CRC 249F0418 Copy CRC 249F0418 Copy OK
Track 7
Filename f:\Users\Guillermo\Desktop\EAC convertidos\07 Pista07.wav
Pre-gap length 0:00:02.00
Peak level 71.5 % Extraction speed 2.8 X Track quality 100.0 % Test CRC 8A7E23F5 Copy CRC 8A7E23F5 Copy OK
Track 8
Filename f:\Users\Guillermo\Desktop\EAC convertidos\08 Pista08.wav
Pre-gap length 0:00:02.00
Peak level 62.0 % Extraction speed 3.1 X Track quality 100.0 % Test CRC 8EEFCBE7 Copy CRC 8EEFCBE7 Copy OK
Track 9
Filename f:\Users\Guillermo\Desktop\EAC convertidos\09 Pista09.wav
Pre-gap length 0:00:02.00
Peak level 71.4 % Extraction speed 3.5 X Track quality 100.0 % Test CRC 3AC9786F Copy CRC 3AC9786F Copy OK
Track 10
Filename f:\Users\Guillermo\Desktop\EAC convertidos\10 Pista10.wav
Pre-gap length 0:00:02.00
Peak level 74.5 % Extraction speed 3.8 X Track quality 100.0 % Test CRC ECDEFE88 Copy CRC ECDEFE88 Copy OK
Track 11
Filename f:\Users\Guillermo\Desktop\EAC convertidos\11 Pista11.wav
Pre-gap length 0:00:02.00
Peak level 59.2 % Extraction speed 3.3 X Track quality 100.0 % Test CRC FC4CF0AB Copy CRC FC4CF0AB Copy OK
Track 12
Filename f:\Users\Guillermo\Desktop\EAC convertidos\12 Pista12.wav
Pre-gap length 0:00:02.00
Peak level 69.6 % Extraction speed 3.7 X Track quality 100.0 % Test CRC 44591B87 Copy CRC 44591B87 Copy OK
No errors occurred
End of status report
==== Log checksum AC26ECE2DC0F7FBFCF3F29EBCEC7FB371477ED4CCD85A9D9CC348F9B7A8EEDF1 ====
------------------------------------------------------------
Exact Audio Copy V1.0 beta 3 from 29. August 2011
EAC extraction logfile from 23. December 2015, 12:33
Artista desconocido / Título desconocido
Used drive : HL-DT-STDVDRAM GH24NSC0 Adapter: 3 ID: 0
Read mode : SecureUtilize accurate stream : YesDefeat audio cache : YesMake use of C2 pointers : Yes
Read offset correction : 6Overread into Lead-In and Lead-Out : NoFill up missing offset samples with silence : YesDelete leading and trailing silent blocks : YesNull samples used in CRC calculations : YesUsed interface : Native Win32 interface for Win NT & 2000Gap handling : Appended to previous track
Used output format : User Defined EncoderSelected bitrate : 768 kBit/sQuality : HighAdd ID3 tag : NoCommand line compressor : C:\Program Files (x86)\Exact Audio Copy\FLAC\FLAC.EXEAdditional command line options : -8 -V -T "ARTIST=%artist%" -T "TITLE=%title%" -T "ALBUM=%albumtitle%" -T "DATE=%year%" -T "TRACKNUMBER=%tracknr%" -T "GENRE=%genre%" -T "PERFORMER=%albuminterpret%" -T "COMPOSER=%composer%" %haslyrics%--tag-from-file=LYRICS="%lyricsfile%"%haslyrics% -T "ALBUMARTIST=%albumartist%" -T "DISCNUMBER=%cdnumber%" -T "TOTALDISCS=%totalcds%" -T "TOTALTRACKS=%numtracks%" -T "COMMENT=%comment%" %source% -o %dest%
TOC of the extracted CD
Track | Start | Length | Start sector | End sector --------------------------------------------------------- 1 | 0:00.33 | 5:48.55 | 33 | 26187 2 | 5:49.13 | 5:16.15 | 26188 | 49902 3 | 11:05.28 | 6:49.40 | 49903 | 80617 4 | 17:54.68 | 1:14.60 | 80618 | 86227 5 | 19:09.53 | 6:59.22 | 86228 | 117674 6 | 26:09.00 | 3:02.23 | 117675 | 131347 7 | 29:11.23 | 4:14.02 | 131348 | 150399 8 | 33:25.25 | 2:47.10 | 150400 | 162934 9 | 36:12.35 | 2:37.05 | 162935 | 174714 10 | 38:49.40 | 2:58.30 | 174715 | 188094 11 | 41:47.70 | 6:55.35 | 188095 | 219254 12 | 48:43.30 | 11:42.05 | 219255 | 271909 13 | 60:25.35 | 2:43.33 | 271910 | 284167 14 | 63:08.68 | 3:11.32 | 284168 | 298524 15 | 66:20.25 | 5:12.38 | 298525 | 321962
Track 1
Filename f:\Users\Guillermo\Desktop\EAC convertidos\01 Pista01.wav
Pre-gap length 0:00:02.44
Copy aborted
Track 2
Pre-gap length 0:00:02.00
Copy aborted
Track 3
Pre-gap length 0:00:02.00
Copy aborted
Track 4
Pre-gap length 0:00:02.00
Copy aborted
Track 5
Pre-gap length 0:00:02.00
Copy aborted
Track 6
Pre-gap length 0:00:02.00
Copy aborted
Track 7
Pre-gap length 0:00:02.00
Copy aborted
Track 8
Pre-gap length 0:00:02.00
Copy aborted
Track 9
Pre-gap length 0:00:02.00
Copy aborted
Track 10
Pre-gap length 0:00:02.00
Copy aborted
Track 11
Pre-gap length 0:00:02.00
Copy aborted
Track 12
Pre-gap length 0:00:02.00
Copy aborted
Track 13
Pre-gap length 0:00:02.00
Copy aborted
Track 14
Pre-gap length 0:00:02.00
Copy aborted
Track 15
Pre-gap length 0:00:02.00
Copy aborted
There were errors
End of status report
==== Log checksum 9DBF7E1A34F11EEA4DC2EABE7E358B9A55462E63CEA74A34B10B8A7157941492 ====

Лог создания рипа CD 2

Exact Audio Copy V1.0 beta 3 from 29. August 2011
EAC extraction logfile from 23. December 2015, 13:55
Artista desconocido / Título desconocido
Used drive : HL-DT-STDVDRAM GH24NSC0 Adapter: 3 ID: 0
Read mode : SecureUtilize accurate stream : YesDefeat audio cache : YesMake use of C2 pointers : No
Read offset correction : 6Overread into Lead-In and Lead-Out : NoFill up missing offset samples with silence : YesDelete leading and trailing silent blocks : NoNull samples used in CRC calculations : YesUsed interface : Native Win32 interface for Win NT & 2000Gap handling : Appended to previous track
Used output format : User Defined EncoderSelected bitrate : 768 kBit/sQuality : HighAdd ID3 tag : NoCommand line compressor : C:\Program Files (x86)\Exact Audio Copy\FLAC\FLAC.EXEAdditional command line options : -8 -V -T "ARTIST=%artist%" -T "TITLE=%title%" -T "ALBUM=%albumtitle%" -T "DATE=%year%" -T "TRACKNUMBER=%tracknr%" -T "GENRE=%genre%" -T "PERFORMER=%albuminterpret%" -T "COMPOSER=%composer%" %haslyrics%--tag-from-file=LYRICS="%lyricsfile%"%haslyrics% -T "ALBUMARTIST=%albumartist%" -T "DISCNUMBER=%cdnumber%" -T "TOTALDISCS=%totalcds%" -T "TOTALTRACKS=%numtracks%" -T "COMMENT=%comment%" %source% -o %dest%
TOC of the extracted CD
Track | Start | Length | Start sector | End sector --------------------------------------------------------- 1 | 0:00.33 | 5:48.55 | 33 | 26187 2 | 5:49.13 | 5:16.15 | 26188 | 49902 3 | 11:05.28 | 6:49.40 | 49903 | 80617 4 | 17:54.68 | 1:14.60 | 80618 | 86227 5 | 19:09.53 | 6:59.22 | 86228 | 117674 6 | 26:09.00 | 3:02.23 | 117675 | 131347 7 | 29:11.23 | 4:14.02 | 131348 | 150399 8 | 33:25.25 | 2:47.10 | 150400 | 162934 9 | 36:12.35 | 2:37.05 | 162935 | 174714 10 | 38:49.40 | 2:58.30 | 174715 | 188094 11 | 41:47.70 | 6:55.35 | 188095 | 219254 12 | 48:43.30 | 11:42.05 | 219255 | 271909 13 | 60:25.35 | 2:43.33 | 271910 | 284167 14 | 63:08.68 | 3:11.32 | 284168 | 298524 15 | 66:20.25 | 5:12.38 | 298525 | 321962
Track 1
Filename f:\Users\Guillermo\Desktop\EAC convertidos\01 Pista01.wav
Pre-gap length 0:00:02.44
Peak level 60.1 % Extraction speed 1.8 X Track quality 100.0 % Test CRC 1E6A41B7 Copy CRC 1E6A41B7 Copy OK
Track 2
Filename f:\Users\Guillermo\Desktop\EAC convertidos\02 Pista02.wav
Pre-gap length 0:00:02.00
Peak level 18.2 % Extraction speed 2.0 X Track quality 100.0 % Test CRC 3BF7EB06 Copy CRC 3BF7EB06 Copy OK
Track 3
Filename f:\Users\Guillermo\Desktop\EAC convertidos\03 Pista03.wav
Pre-gap length 0:00:02.00
Peak level 61.4 % Extraction speed 2.3 X Track quality 100.0 % Test CRC C3D90EC5 Copy CRC C3D90EC5 Copy OK
Track 4
Filename f:\Users\Guillermo\Desktop\EAC convertidos\04 Pista04.wav
Pre-gap length 0:00:02.00
Peak level 63.3 % Extraction speed 1.6 X Track quality 100.0 % Test CRC FE71B05E Copy CRC FE71B05E Copy OK
Track 5
Filename f:\Users\Guillermo\Desktop\EAC convertidos\05 Pista05.wav
Pre-gap length 0:00:02.00
Peak level 56.7 % Extraction speed 2.6 X Track quality 100.0 % Test CRC 617A80B3 Copy CRC 617A80B3 Copy OK
Track 6
Filename f:\Users\Guillermo\Desktop\EAC convertidos\06 Pista06.wav
Pre-gap length 0:00:02.00
Peak level 50.2 % Extraction speed 2.3 X Track quality 100.0 % Test CRC 03549BA6 Copy CRC 03549BA6 Copy OK
Track 7
Filename f:\Users\Guillermo\Desktop\EAC convertidos\07 Pista07.wav
Pre-gap length 0:00:02.00
Peak level 61.5 % Extraction speed 2.6 X Track quality 100.0 % Test CRC 5E540DBD Copy CRC 5E540DBD Copy OK
Track 8
Filename f:\Users\Guillermo\Desktop\EAC convertidos\08 Pista08.wav
Pre-gap length 0:00:02.00
Peak level 52.4 % Extraction speed 2.5 X Track quality 100.0 % Test CRC D5D8865A Copy CRC D5D8865A Copy OK
Track 9
Filename f:\Users\Guillermo\Desktop\EAC convertidos\09 Pista09.wav
Pre-gap length 0:00:02.00
Peak level 53.1 % Extraction speed 2.5 X Track quality 100.0 % Test CRC 7B5271C3 Copy CRC 7B5271C3 Copy OK
Track 10
Filename f:\Users\Guillermo\Desktop\EAC convertidos\10 Pista10.wav
Pre-gap length 0:00:02.00
Peak level 48.7 % Extraction speed 2.6 X Track quality 100.0 % Test CRC 2974E676 Copy CRC 2974E676 Copy OK
Track 11
Filename f:\Users\Guillermo\Desktop\EAC convertidos\11 Pista11.wav
Pre-gap length 0:00:02.00
Peak level 58.0 % Extraction speed 3.2 X Track quality 100.0 % Test CRC 05AAAED2 Copy CRC 05AAAED2 Copy OK
Track 12
Filename f:\Users\Guillermo\Desktop\EAC convertidos\12 Pista12.wav
Pre-gap length 0:00:02.00
Peak level 74.2 % Extraction speed 3.6 X Track quality 100.0 % Test CRC 6B9D0D97 Copy CRC 6B9D0D97 Copy OK
Track 13
Filename f:\Users\Guillermo\Desktop\EAC convertidos\13 Pista13.wav
Pre-gap length 0:00:02.00
Peak level 68.4 % Extraction speed 3.0 X Track quality 100.0 % Test CRC 50B9E7E5 Copy CRC 50B9E7E5 Copy OK
Track 14
Filename f:\Users\Guillermo\Desktop\EAC convertidos\14 Pista14.wav
Pre-gap length 0:00:02.00
Peak level 72.8 % Extraction speed 3.2 X Track quality 100.0 % Test CRC DD804839 Copy CRC DD804839 Copy OK
Track 15
Filename f:\Users\Guillermo\Desktop\EAC convertidos\15 Pista15.wav
Pre-gap length 0:00:02.00
Peak level 81.4 % Extraction speed 3.6 X Track quality 100.0 % Test CRC AF49E83B Copy CRC AF49E83B Copy OK
No errors occurred
End of status report
==== Log checksum 7E0DA09833F365ED90693FD4BA933853C1FC05260FDB62A3B7CDA9D5D42E527C ====

Содержание индексной карты (.CUE)Содержание индексной карты (.CUE) CD 1

REM DISCID CF10C40FREM COMMENT "ExactAudioCopy v1.0b3"FILE "01 Pista01.wav" WAVE TRACK 01 AUDIO PREGAP 00:00:33 INDEX 01 00:00:00 TRACK 02 AUDIO INDEX 00 05:46:55FILE "02 Pista02.wav" WAVE INDEX 01 00:00:00 TRACK 03 AUDIO INDEX 00 05:14:15FILE "03 Pista03.wav" WAVE INDEX 01 00:00:00 TRACK 04 AUDIO INDEX 00 06:47:40FILE "04 Pista04.wav" WAVE INDEX 01 00:00:00 TRACK 05 AUDIO INDEX 00 01:12:60FILE "05 Pista05.wav" WAVE INDEX 01 00:00:00 TRACK 06 AUDIO INDEX 00 06:57:22FILE "06 Pista06.wav" WAVE INDEX 01 00:00:00 TRACK 07 AUDIO INDEX 00 03:00:23FILE "07 Pista07.wav" WAVE INDEX 01 00:00:00 TRACK 08 AUDIO INDEX 00 04:12:02FILE "08 Pista08.wav" WAVE INDEX 01 00:00:00 TRACK 09 AUDIO INDEX 00 02:45:10FILE "09 Pista09.wav" WAVE INDEX 01 00:00:00 TRACK 10 AUDIO INDEX 00 02:35:05FILE "10 Pista10.wav" WAVE INDEX 01 00:00:00 TRACK 11 AUDIO INDEX 00 02:56:30FILE "11 Pista11.wav" WAVE INDEX 01 00:00:00 TRACK 12 AUDIO INDEX 00 06:53:35FILE "12 Pista12.wav" WAVE INDEX 01 00:00:00 TRACK 13 AUDIO INDEX 00 11:40:05FILE "13 Pista13.wav" WAVE INDEX 01 00:00:00 TRACK 14 AUDIO INDEX 00 02:41:33FILE "14 Pista14.wav" WAVE INDEX 01 00:00:00 TRACK 15 AUDIO INDEX 00 03:09:32FILE "15 Pista15.wav" WAVE INDEX 01 00:00:00

Содержание индексной карты (.CUE) CD 2

REM DISCID CF10C40FREM COMMENT "ExactAudioCopy v1.0b3"FILE "01 Pista01.wav" WAVE TRACK 01 AUDIO PREGAP 00:00:33 INDEX 01 00:00:00 TRACK 02 AUDIO INDEX 00 05:46:55FILE "02 Pista02.wav" WAVE INDEX 01 00:00:00 TRACK 03 AUDIO INDEX 00 05:14:15FILE "03 Pista03.wav" WAVE INDEX 01 00:00:00 TRACK 04 AUDIO INDEX 00 06:47:40FILE "04 Pista04.wav" WAVE INDEX 01 00:00:00 TRACK 05 AUDIO INDEX 00 01:12:60FILE "05 Pista05.wav" WAVE INDEX 01 00:00:00 TRACK 06 AUDIO INDEX 00 06:57:22FILE "06 Pista06.wav" WAVE INDEX 01 00:00:00 TRACK 07 AUDIO INDEX 00 03:00:23FILE "07 Pista07.wav" WAVE INDEX 01 00:00:00 TRACK 08 AUDIO INDEX 00 04:12:02FILE "08 Pista08.wav" WAVE INDEX 01 00:00:00 TRACK 09 AUDIO INDEX 00 02:45:10FILE "09 Pista09.wav" WAVE INDEX 01 00:00:00 TRACK 10 AUDIO INDEX 00 02:35:05FILE "10 Pista10.wav" WAVE INDEX 01 00:00:00 TRACK 11 AUDIO INDEX 00 02:56:30FILE "11 Pista11.wav" WAVE INDEX 01 00:00:00 TRACK 12 AUDIO INDEX 00 06:53:35FILE "12 Pista12.wav" WAVE INDEX 01 00:00:00 TRACK 13 AUDIO INDEX 00 11:40:05FILE "13 Pista13.wav" WAVE INDEX 01 00:00:00 TRACK 14 AUDIO INDEX 00 02:41:33FILE "14 Pista14.wav" WAVE INDEX 01 00:00:00 TRACK 15 AUDIO INDEX 00 03:09:32FILE "15 Pista15.wav" WAVE INDEX 01 00:00:00

Треклист

Disc 1:
1. Preludio
Act I:
2. Se Quel Guerrier Io Fossi! Celeste Aida
3. Quale insolita gioia nel tuo sguardo
4. Su! del Nilo al sacro lido
5. Ritorna vincitor!
6. Possente, possente Ftha, del mondo
7. Nume, custode e vindice
Act II:
8. Chi mai fra gl'inni e i plausi
9. Silenzio!
10. Gloria all' Egitto, ad Iside
11. Salvator della patria
12. Quest'assisa
Disc 2:
1. O Re: pei sacri Numi
Act III:
2. Qui Radamès verrà!...
3. Ciel! mio padre!
4. Rivedrai le foreste imbalsamate
5. Pur ti riveggo, mia dolce Aida...
6. Fuggiam gli ardori inospiti
7. Aida!
8. Tu! Amonasro!
Act IV:
9. L'aborrita rivale a me sfuggia...
10. Già i Sacerdoti adunansi
11. Ohimè!... morir mi sento!
12. La fatal pietra sovra me si chiuse...
13. Morir! Si pura e bella
14. O terra, addio



Показать сообщения:    

Текущее время: 10-Дек 15:50

Часовой пояс: UTC + 3


Вы не можете начинать темы
Вы не можете отвечать на сообщения
Вы не можете редактировать свои сообщения
Вы не можете удалять свои сообщения
Вы не можете голосовать в опросах
Вы не можете прикреплять файлы к сообщениям
Вы не можете скачивать файлы