[TR24][OF] John Adams - City Noir & Saxophone Concerto (Timothy McAllister, St. Louis Symphony, David Robertson), 2015 (Neoclassical, Orchestral)


Статистика раздачи [Обновить пиров]
Размер:  1.09 GB   |    Зарегистрирован:  11 месяцев 5 дней   |    Скачан:  0 раз

Полного источника не было: Никогда

 
   
 
 
 

[Цитировать]

John Adams - City Noir & Saxophone Concerto
Формат записи/Источник записи: [TR24][OF]
Наличие водяных знаков: Нет
Год издания/переиздания диска: 2015
Жанр: Neoclassical, Orchestral
Издатель(лейбл): Nonesuch Records
Продолжительность: 01:03:24
Исполнитель:
Timothy McAllister, alto saxophone,
St. Louis Symphony,
David Robertson, conductor.
City Noir recorded on February 15–16, 2013.
Saxophone Concerto recorded on October 5–6, 2013.
Recording made at Powell Hall, St. Louis, MO.
Треклист:
City Noir:
1. I. The City And Its Double
2. II. The Song Is For You
3. III. Boulevard Night
Saxophone Concerto:
4. I. Animato
5. I. (Cont'd.) Moderato
6. II. Molto vivo
Контейнер: FLAC (*.flac)
Тип рипа: tracks
Разрядность: 24/96
Количество каналов: 2.0
Источник: HDtracks

DR-Report

foobar2000 1.3.6 / Замер динамического диапазона (DR) 1.1.1Дата отчёта: 2015-12-27 23:43:51
--------------------------------------------------------------------------------Анализ: John Adams, St. Louis Symphony, David Robertson / City Noir--------------------------------------------------------------------------------
DR Пики RMS Продолжительность трека--------------------------------------------------------------------------------DR12 -0.35 дБ -17.89 дБ 13:48 01-City Noir: I. The City and its DoubleDR14 -0.35 дБ -20.80 дБ 9:23 02-City Noir: II. The Song is for YouDR11 -0.35 дБ -16.49 дБ 12:20 03-City Noir: III. Boulevard NightDR15 -3.42 дБ -23.20 дБ 12:29 04-Saxophone Concerto: I. Animato - Moderato - Tranquillo, suaveDR14 -4.33 дБ -25.22 дБ 9:20 05-Saxophone Concerto: I. (cont'd.) Moderato - Tranquillo, suaveDR14 -3.41 дБ -20.54 дБ 5:53 06-Saxophone Concerto: II. Molto vivo (a hard driving pulse)--------------------------------------------------------------------------------
Количество треков: 6Реальные значения DR: DR14
Частота: 96000 ГцКаналов: 2Разрядность: 24Битрейт: 2487 кбит/сКодек: FLAC================================================================================
[teatrix.ru].t12412.torrent 
Торрент: Зарегистрирован [ 2015-12-28 10:25 ] · 2285CBCE42E57EAD90DB28E2D51DF638A92D01B5

Скачать .torrent

Скачать

12 KB

Статус: проверено
Скачан: 0 раз
Размер: 1.09 GB
terms.php



Быстрый ответ

Имя:

      
Для отправки сообщений необходимо включить JavaScript
Показать сообщения:    

Текущее время: 03-Дек 07:38

Часовой пояс: UTC + 3


Вы можете начинать темы
Вы можете отвечать на сообщения
Вы не можете редактировать свои сообщения
Вы не можете удалять свои сообщения
Вы не можете голосовать в опросах
Вы не можете прикреплять файлы к сообщениям
Вы можете скачивать файлы