KlassikHits, Teil 1 (Verdi, Bizet, Lehar, Mozart, Puccini, Offenbach, Wagner) Anna Netrebko, Rolando Villazon, Placido Domingo, Elina Garanca, Piotr Beczala, Fritz Wunderlich, Jonas Kaufmann, Nicole Cabell ... [2015, Classical / Opera, HDTV 720p]


 

[Цитировать]

KlassikHits
Teil 1

-
Год выпуска: 2015
Лейбл: ZDF / 3sat
Жанр: Classical / Opera / Vocal
Продолжительность: 00:44:23
Исполнители:
Anna Netrebko / Анна Нетребко
Rolando Villazon
Placido Domingo
Elīna Garanča
Piotr Beczała
Fritz Wunderlich
Jonas Kaufmann
Sylvia Geszty
Rohangiz Yachmi
Nicole Cabell
Renee Fleming
Michael Voile
Треклист:
- Giuseppe Verdi - La Traviata: Libiamo, ne lieti calici (Netrebko, Villazón, Domingo)
- Georges Bizet - Carmen: L'amour est un oiseau rebelle (Habanera) (Elīna Garanča)
- Franz Lehar - Die gelbe Jacke: Das Land des Lächelns (Piotr Beczała)
- Franz Lehar - Giuditta: Meine Lippen, sie küssen so heiß (Anna Netrebko)
- Wolfgang Amadeus Mozart - Die Zauberflöte: Bildnisarie (Fritz Wunderlich)
- Giacomo Puccini - Turandot: Nessun dorma (Jonas Kaufmann)
- Jacques Offenbach - Hoffmanns Erzählungen: Barcarole (Sylvia Geszty, RohangizYachmi)
- Giacomo Puccini - Gianni Schicchi: O mio babbino caro (Nicole Cabell)
- Giuseppe Verdi - Rigoletto: La donna è mobile (Rolando Villazón)
- Giacomo Puccini - Tosca: Vissi d'arte, vissi d'amore (Renée Fleming)
- Richard Wagner - Die Meistersinger von Nürnberg: Ehrt eure deutschen Meister (Michael Voile)
Доп. информация:
KlassikHits 3sat.de
Elīna Garanča Official Site
Elīna Garanča from Wikipedia, the free encyclopedia
Renée Fleming Official Site
Renée Fleming from Wikipedia, the free encyclopedia
Качество видео: HDTV 720p
Контейнер: TS
Видео кодек: H.264
Аудио кодек: AC3
Видео поток: 11.7 Mbps, 1280*720 (16:9), at 50.000 fps, AVC (High@L4.0) (CABAC / 6 Ref Frames)
Аудио поток: German, 256 Kbps, 48.0 KHz, 2 channels, MPEG Audio (Version 1) (Layer 2)
Аудио 2: 192 Kbps, 48.0 KHz, 2 channels, MPEG Audio (Version 1) (Layer 2)
Аудио 3: German, 448 Kbps, 48.0 KHz, 16 bits, 2 channels, AC-3
Аудио 4: Multiple languages, 192 Kbps, 48.0 KHz, 2 channels, MPEG Audio (Version 1) (Layer 2)
Источник: Digital Satellite > SkyStar HD2 (TechniSat) > raw data to HDD > Cypheros TS-Doctor > Smart Cutter (cut) > ts

MediaInfo

GeneralID : 8900 (0x22C4)Complete name : C:\3sat HD_KlassikHits, Teil 1.tsFormat : MPEG-TSFile size : 4.19 GiBDuration : 44mn 23sOverall bit rate mode : VariableOverall bit rate : 13.5 Mbps
VideoID : 6510 (0x196E)Menu ID : 11150 (0x2B8E)Format : AVCFormat/Info : Advanced Video CodecFormat profile : High@L4.0Format settings, CABAC : YesFormat settings, ReFrames : 6 framesCodec ID : 27Duration : 44mn 23sBit rate : 11.7 MbpsWidth : 1 280 pixelsHeight : 720 pixelsDisplay aspect ratio : 16:9Frame rate : 50.000 fpsColor space : YUVChroma subsampling : 4:2:0Bit depth : 8 bitsScan type : ProgressiveBits/(Pixel*Frame) : 0.255Stream size : 3.64 GiB (87%)Color primaries : BT.709Transfer characteristics : BT.709Matrix coefficients : BT.709
Audio #1ID : 6520 (0x1978)Menu ID : 11150 (0x2B8E)Format : MPEG AudioFormat version : Version 1Format profile : Layer 2Codec ID : 3Duration : 44mn 23sBit rate mode : ConstantBit rate : 256 KbpsChannel(s) : 2 channelsSampling rate : 48.0 KHzCompression mode : LossyDelay relative to video : -18msStream size : 81.3 MiB (2%)Language : German
Audio #2ID : 6521 (0x1979)Menu ID : 11150 (0x2B8E)Format : MPEG AudioFormat version : Version 1Format profile : Layer 2Codec ID : 3Duration : 44mn 23sBit rate mode : ConstantBit rate : 192 KbpsChannel(s) : 2 channelsSampling rate : 48.0 KHzCompression mode : LossyDelay relative to video : -18msStream size : 61.0 MiB (1%)
Audio #3ID : 6522 (0x197A)Menu ID : 11150 (0x2B8E)Format : AC-3Format/Info : Audio Coding 3Mode extension : CM (complete main)Format settings, Endianness : BigCodec ID : 6Duration : 44mn 23sBit rate mode : ConstantBit rate : 448 KbpsChannel(s) : 2 channelsChannel positions : Front: L RSampling rate : 48.0 KHzBit depth : 16 bitsCompression mode : LossyDelay relative to video : -12msStream size : 142 MiB (3%)Language : German
Audio #4ID : 6523 (0x197B)Menu ID : 11150 (0x2B8E)Format : MPEG AudioFormat version : Version 1Format profile : Layer 2Codec ID : 3Duration : 44mn 23sBit rate mode : ConstantBit rate : 192 KbpsChannel(s) : 2 channelsSampling rate : 48.0 KHzCompression mode : LossyDelay relative to video : -10msStream size : 61.0 MiB (1%)Language : Multiple languages
... info ...">

Скриншоты ... info ...


In zwei Ausgaben präsentiert die Sendung die größten Stars und bekanntesten Melodien der klassischen Musik. 3sat bedient sich dabei an Aufnahmen diversen Konzerte und Shows aus dem großen Archiv des ZDF. Die erste Sendung steht voll und ganz im Zeichen des Gesangs, zeigt Auftritte von Fritz Wunderlich und Sylvia Geszty aus den 1960er und 70er Jahren, aber auch neuere Darbietungen aus Oper und Operette mit Anna Netrebko, Jonas Kaufmann, Rollando Villazòn und Plácido Domingo, die unter anderem Klassiker wie „Nessun dorma“, „Meine Lippen die küssen so heiß“ oder das Trinklied aus „La Traviata“ zum Besten geben.
In der zweiten Ausgabe geben sich dann die größten Stars der Instrumentalmusik die Ehre: Herbert von Karajan dirigiert und David Garrett, Anne Sophie Mutter und Lang Lang spielen die populärsten Melodien von Wolfgang Amadeus Mozart, Robert Schumann, Felix Mendelssohn Bartholdy und vielen anderen.
~ 3sat.de

[Цитировать]

Спасибо! Отличный концерт!


Показать сообщения:    

Текущее время: 11-Дек 11:08

Часовой пояс: UTC + 3


Вы не можете начинать темы
Вы не можете отвечать на сообщения
Вы не можете редактировать свои сообщения
Вы не можете удалять свои сообщения
Вы не можете голосовать в опросах
Вы не можете прикреплять файлы к сообщениям
Вы не можете скачивать файлы