Олдбой / Oldboy (Чхан Вук Пак / ChanWook Park) [2003, Южная Корея, детектив, HDRip] MVO (Первый канал) + DVO (Tycoon Studio)


 

[Цитировать]

Олдбой
Oldboy

Страна: Южная Корея
Жанр: детектив
Год выпуска: 2003
Продолжительность: 01:59:56-Перевод 1: Профессиональный (многоголосый закадровый)
Первый канал

Перевод 2: Профессиональный (двухголосый закадровый)
Tycoon Studio

Cубтитры: нет
Оригинальная аудиодорожка: нет-Режиссер: Чхан Вук Пак / ChanWook Park
В ролях: Мин Сик Чхой, Жчи Тэ У, Хэ Джун Кан, Джин Со Юн, Сенг Шин Ли, Бьёнг Ок Ким, Даль Су О, Да Хэн Джи, Дэ Йон Ли, Кван Рок О-Описание: 1988 год. Обыкновенный и ничем непримечательный бизнесмен, по имени О Дэ Су, в день трёхлетия своей дочери, по пути домой напивается, начинает хулиганить и закономерно попадает в полицейский участок. Из участка его под своё поручительство забирает друг детства по имени Чжу Хван. Пока Чжу Хван звонит домой жене незадачливого пьяницы, О Дэ Су пропадает. Неизвестные похищают его и помещают в камеру частной тюрьмы. Камера состоит из комнаты и санузла, в ней есть телевизор, но нет окон…-Доп. информация:
О переводе №1: Перевод на трекере появляется впервые
Есть вставка из Tycoon Studio: 01:32:28
Звук качеством "не страдает"
-Сэмпл: минута52сек-Качество видео: HDRip
Формат видео: AVI
Видео: XviD, 704x304, 2,35:1, 23,976 кадра/сек, 1339 Кбит/сек
Аудио 1: AC-3, 48,0 КГц, 192 Кбит/сек, 2 канала (многоголосый Первый канал)
Аудио 2: AC-3, 48,0 КГц, 192 Кбит/сек, 2 канала (двухголосый Tycoon Studio)

MediaInfo

Общее
Полное имя : Олдбой.2003.HDRip.avi
Формат : AVI
Формат/Информация : Audio Video Interleave
Размер файла : 1,46 Гбайт
Продолжительность : 1 ч. 59 м.
Общий поток : 1737 Кбит/сек
Программа кодирования : VirtualDubModRus 1.5.10.2 (build 2542/release)
Библиотека кодирования : VirtualDubMod build 2542/release
Видео
Идентификатор : 0
Формат : MPEG-4 Visual
Профиль формата : Advanced Simple@L5
Параметр BVOP формата : 1
Параметр QPel формата : Нет
Параметр GMC формата : Без точки перехода
Параметр матрицы формата : Default (MPEG)
Идентификатор кодека : XVID
Идентификатор кодека/Подсказка : XviD
Продолжительность : 1 ч. 59 м.
Битрейт : 1339 Кбит/сек
Ширина : 704 пикселя
Высота : 304 пикселя
Соотношение сторон : 2,35:1
Частота кадров : 23,976 (23976/1000) кадра/сек
Цветовое пространство : YUV
Субдискретизация насыщенности : 4:2:0
Битовая глубина : 8 бит
Тип развёртки : Прогрессивная
Метод сжатия : С потерями
Бит/(Пиксели*Кадры) : 0.261
Размер потока : 1,12 Гбайт (77%)
Библиотека кодирования : XviD 1.2.1 (UTC 2008-12-04)
Аудио #1
Идентификатор : 1
Формат : AC-3
Формат/Информация : Audio Coding 3
Расширение режима : CM (complete main)
Параметр Endianness формата : Big
Идентификатор кодека : 2000
Продолжительность : 1 ч. 59 м.
Вид битрейта : Постоянный
Битрейт : 192 Кбит/сек
Каналы : 2 канала
Расположение каналов : Front: L R
Частота : 48,0 КГц
Частота кадров : 31,250 кадров/сек (1536 spf)
Метод сжатия : С потерями
Размер потока : 165 Мбайт (11%)
Выравнивание : Разделение по промежуткам
Продолжительность промежутка : 42 мс. (1,00 видеокадр)
Время предзагрузки промежутка : 500 мс.
Заголовок : многоголосый Первый канал
Аудио #2
Идентификатор : 2
Формат : AC-3
Формат/Информация : Audio Coding 3
Расширение режима : CM (complete main)
Параметр Endianness формата : Big
Идентификатор кодека : 2000
Продолжительность : 1 ч. 59 м.
Вид битрейта : Постоянный
Битрейт : 192 Кбит/сек
Каналы : 2 канала
Расположение каналов : Front: L R
Частота : 48,0 КГц
Частота кадров : 31,250 кадров/сек (1536 spf)
Метод сжатия : С потерями
Размер потока : 165 Мбайт (11%)
Выравнивание : Разделение по промежуткам
Продолжительность промежутка : 42 мс. (1,00 видеокадр)
Время предзагрузки промежутка : 500 мс.
Заголовок : двухголосый Tycoon Studio

Скриншот c названием фильма




Показать сообщения:    

Текущее время: 04-Дек 17:19

Часовой пояс: UTC + 3


Вы не можете начинать темы
Вы не можете отвечать на сообщения
Вы не можете редактировать свои сообщения
Вы не можете удалять свои сообщения
Вы не можете голосовать в опросах
Вы не можете прикреплять файлы к сообщениям
Вы не можете скачивать файлы