Королева Земли / Queen of Earth (Алекс Росс Перри / Alex Ross Perry) [2014, триллер, драма, WEB-DLRip] sub rus + original eng


Статистика раздачи [Обновить пиров]
Размер:  1.46 GB   |    Зарегистрирован:  1 год   |    Скачан:  0 раз

Полного источника не было: Никогда

 
   
 
 
 

[Цитировать]

Королева Земли / Queen of EarthГод выпуска: 2015
Страна: США
Жанр: триллер, драма
Продолжительность: 01:29:54
Перевод: Субтитры
Cубтитры: русские (julia_83)
Оригинальная аудиодорожка: английский
Режиссер: Алекс Росс Перри / Alex Ross Perry
Сценарий: Алекс Росс Перри / Alex Ross Perry
Продюсер: Элизабет Мосс / Elisabeth Moss, Алекс Росс Перри / Alex Ross Perry, Адам Пиотрович / Adam Piotrowicz, Джо Сванберг / Joe Swanberg, Христос Константакопулос / Hristos Konstadakopoulos
Оператор: Шон Прайс Уильямс / Sean Price Williams
Композитор: Кигэн Девитт / Keegan DeWitt
В ролях: Элизабет Мосс, Кэтрин Уотерстон, Патрик Фьюджит, Кит Поулсон, Кейт Лин Шейл, Крэйг Бутта, Кэтерин Флеминг-Описание: Мир Кэтрин треснул. Ее жестоко бросил бойфренд сразу же после суицида отца, на которого та работала. На грани нервного срыва она решает провести неделю на даче у подруги Вирджинии, чтобы залечить раны, однако отношения у них довольно токсичны еще со времен прошлогодней встречи. На этот раз подруги снова начинают изводить друг дружку в пассивно-агрессивных стычках, и Кэтрин еще глубже утопает в тягучей депрессии под невыносимо надрывные звуки струнного саундтрека. Несколько раз в гости заходит сосед, который, сближаясь с Вирджинией, говорит раздражающей Кэтрин, что до смерти отца она жила в пузыре среднего класса и теперь ей никогда не достигнуть высот отца-художника на социальной лестнице. Когда Кэтрин одолевает безумный ужас от такой перспективы, ее становится искренне жаль.-Рейтинг
Кинопоиск
IMDB-Качество: DVDRip
Формат: AVI
Видео: XviD; 720x400 (16:9); 1869 Kbps; 23,976 fps; 0,271 bpp
Аудио: AC3; 448 Kbps; CBR; 6 ch; 48.0 KHz-

MI

Format : AVI
Format/Info : Audio Video Interleave
File size : 1.46 GiB
Duration : 1h 29mn
Overall bit rate : 2 327 Kbps
Writing application : VirtualDubMod 1.5.10.3 | www.virtualdub-fr.org || (build 2550/release)
Writing library : VirtualDubMod build 2550/release
Video
ID : 0
Format : MPEG-4 Visual
Format profile : Advanced Simple@L5
Format settings, BVOP : 1
Format settings, QPel : No
Format settings, GMC : No warppoints
Format settings, Matrix : Default (MPEG)
Codec ID : XVID
Codec ID/Hint : XviD
Duration : 1h 29mn
Bit rate : 1 870 Kbps
Width : 720 pixels
Height : 400 pixels
Display aspect ratio : 16:9
Frame rate : 23.976 fps
Color space : YUV
Chroma subsampling : 4:2:0
Bit depth : 8 bits
Scan type : Progressive
Compression mode : Lossy
Bits/(Pixel*Frame) : 0.271
Stream size : 1.17 GiB (80%)
Writing library : XviD 1.2.1 (UTC 2008-12-04)
Audio
ID : 1
Format : AC-3
Format/Info : Audio Coding 3
Mode extension : CM (complete main)
Format settings, Endianness : Big
Codec ID : 2000
Duration : 1h 29mn
Bit rate mode : Constant
Bit rate : 448 Kbps
Channel(s) : 6 channels
Channel positions : Front: L C R, Side: L R, LFE
Sampling rate : 48.0 KHz
Bit depth : 16 bits
Compression mode : Lossy
Stream size : 288 MiB (19%)
Alignment : Split accross interleaves
Interleave, duration : 42 ms (1.00 video frame)
Interleave, preload duration : 500 ms

Пример субтитров

606
00:42:56,811 --> 00:42:57,978
Я люблю Рича.
607
00:42:58,012 --> 00:42:59,280
Он очарователен.
608
00:42:59,314 --> 00:43:00,715
Перестань.
609
00:43:00,748 --> 00:43:04,018
Думаю, он для тебя недостаточно хорош...
610
00:43:04,051 --> 00:43:05,953
такой же, как и все
611
00:43:07,588 --> 00:43:09,023
То есть?
612
00:43:09,056 --> 00:43:10,991
Любит влезать в чужие дела
613
00:43:12,693 --> 00:43:15,296
В прошлом году он даже пары
вопросов мне не задал,
614
00:43:15,330 --> 00:43:18,265
а теперь резко хочет знать обо мне все.
615
00:43:18,299 --> 00:43:20,167
Просто интересно, к чему бы это
616
00:43:20,200 --> 00:43:21,769
Он тебя лучше узнал.
617
00:43:21,802 --> 00:43:22,903
Он меня вообще не знает.
618
00:43:22,937 --> 00:43:23,971
Ему любопытно.
619
00:43:24,004 --> 00:43:26,741
От любопытства мой отец умер.
620
00:43:26,774 --> 00:43:28,709
Твой отец умер от депрессии.
621
00:43:31,078 --> 00:43:32,313
Извини, но я не смогу закончить,
622
00:43:32,347 --> 00:43:34,349
Если ты не будешь сидеть спокойно.
623
00:44:11,819 --> 00:44:13,421
Вы живете в доме Фрэнка и Сильвии?
624
00:44:14,489 --> 00:44:16,323
Гощу у их племянницы.
625
00:44:16,357 --> 00:44:19,026
- Вирджинии.
- Да.
626
00:44:19,059 --> 00:44:20,461
Раньше тут были?

Скриншоты



[teatrix.ru].t12423.torrent 
Торрент: Зарегистрирован [ 2015-12-29 13:55 ] · E1389DC4CD55CB529CDAA43B80E630E3780FCD66

Скачать .torrent

Скачать

15 KB

Статус: проверено
Скачан: 0 раз
Размер: 1.46 GB
terms.php



Быстрый ответ

Имя:

      
Для отправки сообщений необходимо включить JavaScript
Показать сообщения:    

Текущее время: 25-Янв 00:22

Часовой пояс: UTC + 3


Вы можете начинать темы
Вы можете отвечать на сообщения
Вы не можете редактировать свои сообщения
Вы не можете удалять свои сообщения
Вы не можете голосовать в опросах
Вы не можете прикреплять файлы к сообщениям
Вы можете скачивать файлы