(Classical) Ludwig van Beethoven — Symphonies № 2, 3, 5 & 7 • Piano Concerto № 4 • Overtures (Wilhelm Backhaus, Hans Knappertsbusch) — 1999, APE (image+.cue) lossless


 

[Цитировать]

Symphonies № 2, 3, 5 & 7 • Piano Concerto № 4 • Overtures-
Жанр: Classical
Страна-производитель комплекта: Хорватия
Год издания комплекта: 1999 (December 14)
Годы записи фонограмм: 1952-1962
Издатель (лейбл): Golden Melodram
Номер по каталогу: GM 4.0040
Композитор: Ludwig van Beethoven
Исполнители: Wilhelm Backhaus, piano; Hans Knappertsbusch, conductor
Аудио кодек: ape
Тип рипа: image+.cue
Битрейт аудио: lossless
Продолжительность: 03h44'31"
Источник: web
Наличие сканов в содержимом раздачи: да-

Треклист

CD 1 [01h12'23"]
(01-03) Piano Concerto № 4 G-Dur Op 58 [33'05"]
(04-07) Symphony № 7 A-Dur Op 92 [39'18"]-(01-03) Wiener Philharmoniker, cond. Hans Knappertsbusch, Piano – Wilhelm Backhaus; Wien, 17.1.1954
(04-07) Wiener Philharmoniker, cond. Hans Knappertsbusch, Wien, 17.1.1954-

EAC log

Exact Audio Copy V1.0 beta 1 from 15. November 2010
EAC extraction logfile from 13. November 2012, 18:41
Beethoven / Beethoven - Piano Concerto 4, Symphony 7 - Knappertsbusch, Backhaus CD1
Used drive  : ASUS    DRW-1608P   Adapter: 0  ID: 0
Read mode               : Secure
Utilize accurate stream : Yes
Defeat audio cache      : Yes
Make use of C2 pointers : No
Read offset correction                      : 48
Overread into Lead-In and Lead-Out          : No
Fill up missing offset samples with silence : Yes
Delete leading and trailing silent blocks   : No
Null samples used in CRC calculations       : Yes
Used interface                              : Installed external ASPI interface
Used output format : Monkey's Audio Lossless Encoder v3.99 DLL
Sample format      : High Lossless Compression
TOC of the extracted CD
     Track |   Start  |  Length  | Start sector | End sector
    ---------------------------------------------------------
        1  |  0:00.00 | 17:36.68 |         0    |    79267
        2  | 17:36.68 |  4:40.66 |     79268    |   100333
        3  | 22:17.59 | 10:47.23 |    100334    |   148881
        4  | 33:05.07 | 12:46.35 |    148882    |   206366
        5  | 45:51.42 | 10:09.48 |    206367    |   252089
        6  | 56:01.15 |  8:22.67 |    252090    |   289806
        7  | 64:24.07 |  7:58.60 |    289807    |   325716
Range status and errors
Selected range
     Filename D:\Downloads\Beethoven - Piano Concerto 4, Symphony 7 - Knappertsbusch, Backhaus CD1.ape
     Peak level 99.2 %
     Extraction speed 0.9 X
     Range quality 100.0 %
     Copy CRC 62884E68
     Copy OK
No errors occurred
AccurateRip summary
Track  1  not present in database
Track  2  not present in database
Track  3  not present in database
Track  4  not present in database
Track  5  not present in database
Track  6  not present in database
Track  7  not present in database
None of the tracks are present in the AccurateRip database
End of status report

-

CUE

REM DISCID 7010F607
REM COMMENT "ExactAudioCopy v1.0b1"
PERFORMER "Beethoven"
TITLE "Knappertsbusch CD1"
FILE "CD1.ape" WAVE
  TRACK 01 AUDIO
    TITLE "PC № 4 G-Dur Op 58 – I. Allegro moderato"
    PERFORMER "Beethoven"
    FLAGS DCP
    INDEX 01 00:00:00
  TRACK 02 AUDIO
    TITLE "PC № 4 G-Dur Op 58 – II. Andante con moto"
    PERFORMER "Beethoven"
    FLAGS DCP
    INDEX 01 17:36:68
  TRACK 03 AUDIO
    TITLE "PC № 4 G-Dur Op 58 – III. Rondo vivace"
    PERFORMER "Beethoven"
    FLAGS DCP
    INDEX 01 22:17:59
  TRACK 04 AUDIO
    TITLE "Symphony № 7 A-Dur Op 92 – I. Poco sostenuto – Vivace"
    PERFORMER "Beethoven"
    FLAGS DCP
    INDEX 01 33:05:07
  TRACK 05 AUDIO
    TITLE "Symphony № 7 A-Dur Op 92 – II. Allegretto"
    PERFORMER "Beethoven"
    FLAGS DCP
    INDEX 01 45:51:42
  TRACK 06 AUDIO
    TITLE "Symphony № 7 A-Dur Op 92 – III. Presto"
    PERFORMER "Beethoven"
    FLAGS DCP
    INDEX 01 56:01:15
  TRACK 07 AUDIO
    TITLE "Symphony № 7 A-Dur Op 92 – IV. Allegro con brio"
    PERFORMER "Beethoven"
    FLAGS DCP
    INDEX 01 64:24:07
-CD 2 [01h15'41"]
(01) Overture «Leonore» № 3 C-Dur Op 72a [14'27"]
(02) Overture «Coriolanus» e-moll Op 62 [09'30"]
(03-06) Symphony № 3 Es-Dur Op 55 «Heroic» [51'44"]-(01) Bayerisches Staatsorchester, cond. Hans Knappertsbusch, München, 1959
(02) Wiener Philharmoniker, cond. Hans Knappertsbusch, Wien, 1954
(03-06) Münchner Philharmoniker, cond. Hans Knappertsbusch, München, 1955-

EAC log

Exact Audio Copy V1.0 beta 1 from 15. November 2010
EAC extraction logfile from 13. November 2012, 18:54
Beethoven / Beethoven - Leonore-3, Corioan, Symphony 3 - Knappertsbusch CD2
Used drive  : ASUS    DRW-1608P   Adapter: 0  ID: 0
Read mode               : Secure
Utilize accurate stream : Yes
Defeat audio cache      : Yes
Make use of C2 pointers : No
Read offset correction                      : 48
Overread into Lead-In and Lead-Out          : No
Fill up missing offset samples with silence : Yes
Delete leading and trailing silent blocks   : No
Null samples used in CRC calculations       : Yes
Used interface                              : Installed external ASPI interface
Used output format : Monkey's Audio Lossless Encoder v3.99 DLL
Sample format      : High Lossless Compression
TOC of the extracted CD
     Track |   Start  |  Length  | Start sector | End sector
    ---------------------------------------------------------
        1  |  0:00.00 | 14:27.17 |         0    |    65041
        2  | 14:27.17 |  9:29.53 |     65042    |   107769
        3  | 23:56.70 | 16:12.62 |    107770    |   180731
        4  | 40:09.57 | 15:50.73 |    180732    |   252054
        5  | 56:00.55 |  6:26.01 |    252055    |   281005
        6  | 62:26.56 | 13:14.15 |    281006    |   340570
Range status and errors
Selected range
     Filename D:\Downloads\Beethoven - Leonore-3, Corioan, Symphony 3 - Knappertsbusch CD2.ape
     Peak level 98.8 %
     Extraction speed 1.4 X
     Range quality 99.9 %
     Copy CRC C0033BED
     Copy OK
No errors occurred
AccurateRip summary
Track  1  not present in database
Track  2  not present in database
Track  3  not present in database
Track  4  not present in database
Track  5  not present in database
Track  6  not present in database
None of the tracks are present in the AccurateRip database
End of status report

-

CUE

REM DISCID 5511BC06
REM COMMENT "ExactAudioCopy v1.0b1"
PERFORMER "Beethoven"
TITLE "Knappertsbusch CD2"
FILE "CD2.ape" WAVE
  TRACK 01 AUDIO
    TITLE "Overture «Leonore» № 3 C-Dur Op 72a"
    PERFORMER "Beethoven"
    FLAGS DCP
    INDEX 01 00:00:00
  TRACK 02 AUDIO
    TITLE "Overture «Coriolanus» e-moll Op 62"
    PERFORMER "Beethoven"
    FLAGS DCP
    INDEX 01 14:27:17
  TRACK 03 AUDIO
    TITLE "Symphony № 3 Es-Dur Op 55 «Heroic» – I. Allegro con brio"
    PERFORMER "Beethoven"
    FLAGS DCP
    INDEX 01 23:56:70
  TRACK 04 AUDIO
    TITLE "Symphony № 3 Es-Dur Op 55 «Heroic» – II. Marcia funebre: Adiago assai"
    PERFORMER "Beethoven"
    FLAGS DCP
    INDEX 01 40:09:57
  TRACK 05 AUDIO
    TITLE "Symphony № 3 Es-Dur Op 55 «Heroic» – III. Scherzo: Allegro vivace"
    PERFORMER "Beethoven"
    FLAGS DCP
    INDEX 01 56:00:55
  TRACK 06 AUDIO
    TITLE "Symphony № 3 Es-Dur Op 55 «Heroic» – IV. Finale: Allegro molto – Poco Andante – Presto"
    PERFORMER "Beethoven"
    FLAGS DCP
    INDEX 01 62:26:56
-CD 3 [01h16'28"]
(01-04) Symphony № 2 D-Dur Op 36 [35'36"]
(05-08) Symphony № 5 c-moll Op 67 [40'52"]-(01-04) Bremer Philharmonisches Staatsorchester, cond. Hans Knappertsbusch, Bremen, 1952
(05-08) Hessisches Radio Symphonie Orchester Frankfurt, cond. Hans Knappertsbusch, Frankfurt, 1962-

EAC log

Exact Audio Copy V1.0 beta 1 from 15. November 2010
EAC extraction logfile from 13. November 2012, 19:06
Beethoven / Beethoven - Symphonies 2, 5 - Knappertsbusch CD3
Used drive  : ASUS    DRW-1608P   Adapter: 0  ID: 0
Read mode               : Secure
Utilize accurate stream : Yes
Defeat audio cache      : Yes
Make use of C2 pointers : No
Read offset correction                      : 48
Overread into Lead-In and Lead-Out          : No
Fill up missing offset samples with silence : Yes
Delete leading and trailing silent blocks   : No
Null samples used in CRC calculations       : Yes
Used interface                              : Installed external ASPI interface
Used output format : Monkey's Audio Lossless Encoder v3.99 DLL
Sample format      : High Lossless Compression
TOC of the extracted CD
     Track |   Start  |  Length  | Start sector | End sector
    ---------------------------------------------------------
        1  |  0:00.00 | 10:29.18 |         0    |    47192
        2  | 10:29.18 | 12:48.09 |     47193    |   104801
        3  | 23:17.27 |  4:25.06 |    104802    |   124682
        4  | 27:42.33 |  7:53.19 |    124683    |   160176
        5  | 35:35.52 |  9:54.19 |    160177    |   204745
        6  | 45:29.71 | 12:17.18 |    204746    |   260038
        7  | 57:47.14 |  6:25.36 |    260039    |   288949
        8  | 64:12.50 | 12:14.72 |    288950    |   344071
Range status and errors
Selected range
     Filename D:\Downloads\Beethoven - Symphonies 2, 5 - Knappertsbusch CD3.ape
     Peak level 99.1 %
     Extraction speed 1.3 X
     Range quality 100.0 %
     Copy CRC 4BBADE11
     Copy OK
No errors occurred
AccurateRip summary
Track  1  not present in database
Track  2  not present in database
Track  3  not present in database
Track  4  not present in database
Track  5  not present in database
Track  6  not present in database
Track  7  not present in database
Track  8  not present in database
None of the tracks are present in the AccurateRip database
End of status report

-

CUE

REM DISCID 7711EB08
REM COMMENT "ExactAudioCopy v1.0b1"
PERFORMER "Beethoven"
TITLE "Knappertsbusch CD3"
FILE "CD3.ape" WAVE
  TRACK 01 AUDIO
    TITLE "Symphony № 2 D-Dur Op 36 – I. Adagio molto – Allegro con brio"
    PERFORMER "Beethoven"
    FLAGS DCP
    INDEX 01 00:00:00
  TRACK 02 AUDIO
    TITLE "Symphony № 2 D-Dur Op 36 – II. Larghetto"
    PERFORMER "Beethoven"
    FLAGS DCP
    INDEX 01 10:29:18
  TRACK 03 AUDIO
    TITLE "Symphony № 2 D-Dur Op 36 – III. Scherzo"
    PERFORMER "Beethoven"
    FLAGS DCP
    INDEX 01 23:17:27
  TRACK 04 AUDIO
    TITLE "Symphony № 2 D-Dur Op 36 – IV. Allegro molto"
    PERFORMER "Beethoven"
    FLAGS DCP
    INDEX 01 27:42:33
  TRACK 05 AUDIO
    TITLE "Symphony № 5 c-moll Op 67 – I. Allegro con brio"
    PERFORMER "Beethoven"
    FLAGS DCP
    INDEX 01 35:35:52
  TRACK 06 AUDIO
    TITLE "Symphony № 5 c-moll Op 67 – II. Andante con moto"
    PERFORMER "Beethoven"
    FLAGS DCP
    INDEX 01 45:29:71
  TRACK 07 AUDIO
    TITLE "Symphony № 5 c-moll Op 67 – III. Scherzo"
    PERFORMER "Beethoven"
    FLAGS DCP
    INDEX 01 57:47:14
  TRACK 08 AUDIO
    TITLE "Symphony № 5 c-moll Op 67 – IV. Allegro"
    PERFORMER "Beethoven"
    FLAGS DCP
    INDEX 01 64:12:50

-
-



Показать сообщения:    

Текущее время: 04-Дек 02:55

Часовой пояс: UTC + 3


Вы не можете начинать темы
Вы не можете отвечать на сообщения
Вы не можете редактировать свои сообщения
Вы не можете удалять свои сообщения
Вы не можете голосовать в опросах
Вы не можете прикреплять файлы к сообщениям
Вы не можете скачивать файлы