Связанные насмерть / Одна судьба на двоих / Cкованные намертво / Dead Ringers (Дэвид Кроненберг / David Cronenberg) [1988, Канада, США, триллер, драма, BDRip] MVO + AVO + Sub (Rus, Eng) + Original Eng


 

[Цитировать]

Связанные насмерть / Одна судьба на двоих /
Cкованные намертво / Dead Ringers
- Страна: Канада, США
Жанр: триллер, драма
Год выпуска: 1988
Продолжительность: 01:50:59
Перевод 1: Профессиональный (многоголосый закадровый)
Перевод 2: Авторский (одноголосый закадровый) А. Михалев
Cубтитры: русские, английские
Оригинальная аудиодорожка: английский-Режиссер: Дэвид Кроненберг / David Cronenberg
В ролях: Джереми Айронс, Женевьев Бюжо, Хайди фон Паллеске, Барбара Гордон, Ширли Дуглас, Стивен Лэк, Ник Николс, Линн Кормэк, Дамир Андрей, Мириам Ньюхаус-Описание: Два тела. Два разума. Одна душа. Братья Мэнтл — абсолютно идентичные близнецы. Оба они врачи и работают вместе. Эллиот искусней Бева в деле соблазнения женщин и охотно «дарит» брату своих любовниц, которые и не подозревают о «подмене». Но когда их клинику посещает кинозвезда Клэр, застенчивый Бев влюбляется в нее первым. Клэр, сама того не ведая, начинает встречаться с обоими братьями. Смогут ли они «поделить» любимую женщину или, пытаясь найти утешение в наркотиках и алкоголе, погрузятся в пучину безумия?
- -Качество видео: BDRip (исх. Dead.Ringers.1988.BDRemux.HDTracker)
Формат видео: AVI
Видео: XviD, 704x400, 2210kbps, 25 fps, 0.314 bpf
Аудио 1: AC3, 192 Kbps, 48000 Hz, 2.0 channels - MVO
Аудио 2: AC3, 192 Kbps, 48000 Hz, 2.0 channels - AVO (Михалев)
Аудио 3: AC3, 192 Kbps, 48000 Hz, 2.0 channels - ENG
Формат субтитров: softsub (SRT) - русские, английские
-

Скриншоты


Резервные скриншоты



-

MediaInfo

Format : AVI
Format/Info : Audio Video Interleave
Format profile : OpenDML
File size : 2.18 GiB
Duration : 1h 50mn
Overall bit rate : 2 810 Kbps
Movie name : RG Torrents.ru
Writing application : VirtualDubMod 1.5.10.2 (build 2540/release)
Writing library : VirtualDubMod build 2540/release
Video
ID : 0
Format : MPEG-4 Visual
Format profile : Advanced Simple@L5
Format settings, BVOP : 1
Format settings, QPel : No
Format settings, GMC : No warppoints
Format settings, Matrix : Custom
Codec ID : XVID
Codec ID/Hint : XviD
Duration : 1h 50mn
Bit rate : 2 210 Kbps
Width : 704 pixels
Height : 400 pixels
Display aspect ratio : 16:9
Frame rate : 25.000 fps
Color space : YUV
Chroma subsampling : 4:2:0
Bit depth : 8 bits
Scan type : Progressive
Compression mode : Lossy
Bits/(Pixel*Frame) : 0.314
Stream size : 1.71 GiB (79%)
Writing library : XviD 73
Audio #1
ID : 1
Format : AC-3
Format/Info : Audio Coding 3
Mode extension : CM (complete main)
Format settings, Endianness : Big
Codec ID : 2000
Duration : 1h 50mn
Bit rate mode : Constant
Bit rate : 192 Kbps
Channel(s) : 2 channels
Channel positions : Front: L R
Sampling rate : 48.0 KHz
Bit depth : 16 bits
Compression mode : Lossy
Stream size : 152 MiB (7%)
Alignment : Split accross interleaves
Interleave, duration : 40 ms (1.00 video frame)
Interleave, preload duration : 500 ms
Title : MVO
Audio #2
ID : 2
Format : AC-3
Format/Info : Audio Coding 3
Mode extension : CM (complete main)
Format settings, Endianness : Big
Codec ID : 2000
Duration : 1h 50mn
Bit rate mode : Constant
Bit rate : 192 Kbps
Channel(s) : 2 channels
Channel positions : Front: L R
Sampling rate : 48.0 KHz
Bit depth : 16 bits
Compression mode : Lossy
Stream size : 152 MiB (7%)
Alignment : Split accross interleaves
Interleave, duration : 40 ms (1.00 video frame)
Interleave, preload duration : 500 ms
Title : AVO (Mihalev)
Audio #3
ID : 3
Format : AC-3
Format/Info : Audio Coding 3
Mode extension : CM (complete main)
Format settings, Endianness : Big
Codec ID : 2000
Duration : 1h 50mn
Bit rate mode : Constant
Bit rate : 192 Kbps
Channel(s) : 2 channels
Channel positions : Front: L R
Sampling rate : 48.0 KHz
Bit depth : 16 bits
Compression mode : Lossy
Stream size : 152 MiB (7%)
Alignment : Split accross interleaves
Interleave, duration : 40 ms (1.00 video frame)
Interleave, preload duration : 500 ms

-
+
Muxing mode : Packed bitstream



Показать сообщения:    

Текущее время: 10-Дек 09:57

Часовой пояс: UTC + 3


Вы не можете начинать темы
Вы не можете отвечать на сообщения
Вы не можете редактировать свои сообщения
Вы не можете удалять свои сообщения
Вы не можете голосовать в опросах
Вы не можете прикреплять файлы к сообщениям
Вы не можете скачивать файлы