Мир Апу / Apur Sansar (Сатьяджит Рай / Satyajit Ray) [1959, Индия, драма, HDRip] MVO (СВ-Дубль) + Sub Rus, Eng + original


 

[Цитировать]

Мир Апу / Apur Sansar
Страна: Индия
Жанр: драма
Год выпуска: 1959
Продолжительность: 01:46:17
Перевод: Профессиональный (многоголосый закадровый) - студия СВ-Дубль
Cубтитры: русские (nickk), английские
Оригинальная аудиодорожка: бенгальский

Режиссер: Сатьяджит Рай / Satyajit Ray
В ролях: Сумитра Чаттерджи, Шармила Тагор, Алок Чакраварти, Свапан Махержи, Шанти Баттачерджи, Абхиджит Чаттерджи
Описание: Заключительный фильм трилогии про Апу. Взрослый Апу, став сиротой, живет в жалкой комнатке в Калькутте и стремится стать писателем. Его друг Пулу приглашает его на свадьбу своей сестры Апарны в небольшую бенгальскую деревню. Однако счастье невесты длится недолго — жених оказывается сумасшедшим. А если она не выйдет замуж в назначенный час, будет навеки опозорена. В знак протеста сбитый с толку Апу женится на девушке и забирает молодую жену с собой в город. Через год его жена умрет при родах, оставив Апу сына, которого он поначалу не хочет видеть. Только через пять лет его друг находит его и уговаривает взять на себя заботу о ребенке…
Качество видео: HDRip
Формат видео: AVI
Видео: 656x480 (1.37:1), 23.976 fps, XviD build 73 ~1757 kbps avg, 0.23 bit/pixel
Аудио: 48 kHz, AC3 Dolby Digital, 2/0 (L,R) ch, ~192 kbps - многоголосый
Аудио: 48 kHz, AC3 Dolby Digital, 1 ch, ~192 kbps - оригинал (отдельным файлом)

MediaInfo

Общее
Полное имя : H:\Apur.Sansar.1959.hdrip_[1.46]_[teko]\Apur.Sansar.1959.hdrip_[1.46].avi
Формат : AVI
Формат/Информация : Audio Video Interleave
Размер файла : 1,45 Гбайт
Продолжительность : 1 ч. 46 м.
Общий поток : 1959 Кбит/сек
Программа кодирования : VirtualDubMod 1.5.10.3 | www.virtualdub-fr.org || (build 2550/release)
Библиотека кодирования : VirtualDubMod build 2550/release
Видео
Идентификатор : 0
Формат : MPEG-4 Visual
Профиль формата : Advanced Simple@L5
Параметр BVOP формата : 1
Параметр QPel формата : Нет
Параметр GMC формата : Без точки перехода
Параметр матрицы формата : Выборочная
Идентификатор кодека : XVID
Идентификатор кодека/Подсказка : XviD
Продолжительность : 1 ч. 46 м.
Битрейт : 1757 Кбит/сек
Ширина : 656 пикселей
Высота : 480 пикселей
Соотношение сторон : 4:3
Частота кадров : 23,976 кадра/сек
Цветовое пространство : YUV
Субдискретизация насыщенности : 4:2:0
Битовая глубина : 8 бит
Тип развёртки : Прогрессивная
Метод сжатия : С потерями
Бит/(Пиксели*Кадры) : 0.233
Размер потока : 1,30 Гбайт (90%)
Библиотека кодирования : XviD 73
Аудио
Идентификатор : 1
Формат : AC-3
Формат/Информация : Audio Coding 3
Расширение режима : CM (complete main)
Параметр Endianness формата : Big
Идентификатор кодека : 2000
Продолжительность : 1 ч. 46 м.
Вид битрейта : Постоянный
Битрейт : 192 Кбит/сек
Каналы : 2 канала
Расположение каналов : Front: L R
Частота : 48,0 КГц
Битовая глубина : 16 бит
Метод сжатия : С потерями
Размер потока : 146 Мбайт (10%)
Выравнивание : Разделение по промежуткам
Продолжительность промежутка : 42 мс. (1,00 видеокадр)
Время предзагрузки промежутка : 500 мс.



Показать сообщения:    

Текущее время: 03-Дек 20:41

Часовой пояс: UTC + 3


Вы не можете начинать темы
Вы не можете отвечать на сообщения
Вы не можете редактировать свои сообщения
Вы не можете удалять свои сообщения
Вы не можете голосовать в опросах
Вы не можете прикреплять файлы к сообщениям
Вы не можете скачивать файлы