Непокоренный / Aparajito (Сатьяджит Рай / Satyajit Ray) [1956, Индия, драма, HDRip] MVO (СВ-Дубль) + Sub Rus, Eng + original


 

[Цитировать]

Непокоренный / Aparajito
Страна: Индия
Жанр: драма
Год выпуска: 1956
Продолжительность: 01:50:11
Перевод: Профессиональный (многоголосый закадровый) - студия СВ-Дубль
Cубтитры: русские (vic116), английские
Оригинальная аудиодорожка: бенгальский

Режиссер: Сатьяджит Рай / Satyajit Ray
В ролях: Камала Адхикари, Лалчанд Банерджи, Кали Баннерджи, Кану Баннерджи, Каруна Баннерджи, Харендракумар Чакраварти, Хеманта Чаттерджи, Минакши Деви
Описание: По роману Бибхутибхусана Бандопадхайя.
Во второй части трилогии Апу, несмотря на увещевания матери (мечтающей видеть сына священнослужителем), отправляется на учёбу в Калькуттский университет. Он оказывается вовлечённым в водоворот городской жизни и забывает о своих истоках. По возвращении в родную деревню юноша узнаёт, что мать умерла в его отсутствие. Предложение занять место деревенского священнослужителя ставит молодого человека перед нелёгким выбором.


Качество видео: HDRip
Формат видео: AVI
Видео: 656x480 (1.37:1), 23.976 fps, XviD build 73 ~1687 kbps avg, 0.22 bit/pixel
Аудио: 48 kHz, AC3 Dolby Digital, 2/0 (L,R) ch, ~192 kbps - многоголосый
Аудио: 48 kHz, AC3 Dolby Digital, 1 ch, ~192 kbps - оригинал (отдельным файлом)

MediaInfo

Общее
Полное имя : H:\Aparajito.1956.hdrip_[1.46]_[teko]\Aparajito.1956.hdrip_[1.46].avi
Формат : AVI
Формат/Информация : Audio Video Interleave
Размер файла : 1,45 Гбайт
Продолжительность : 1 ч. 50 м.
Общий поток : 1889 Кбит/сек
Программа кодирования : VirtualDubMod 1.5.10.3 | www.virtualdub-fr.org || (build 2550/release)
Библиотека кодирования : VirtualDubMod build 2550/release
Видео
Идентификатор : 0
Формат : MPEG-4 Visual
Профиль формата : Advanced Simple@L5
Параметр BVOP формата : 1
Параметр QPel формата : Нет
Параметр GMC формата : Без точки перехода
Параметр матрицы формата : Выборочная
Идентификатор кодека : XVID
Идентификатор кодека/Подсказка : XviD
Продолжительность : 1 ч. 50 м.
Битрейт : 1687 Кбит/сек
Ширина : 656 пикселей
Высота : 480 пикселей
Соотношение сторон : 4:3
Частота кадров : 23,976 кадра/сек
Цветовое пространство : YUV
Субдискретизация насыщенности : 4:2:0
Битовая глубина : 8 бит
Тип развёртки : Прогрессивная
Метод сжатия : С потерями
Бит/(Пиксели*Кадры) : 0.223
Размер потока : 1,30 Гбайт (89%)
Библиотека кодирования : XviD 73
Аудио
Идентификатор : 1
Формат : AC-3
Формат/Информация : Audio Coding 3
Расширение режима : CM (complete main)
Параметр Endianness формата : Big
Идентификатор кодека : 2000
Продолжительность : 1 ч. 50 м.
Вид битрейта : Постоянный
Битрейт : 192 Кбит/сек
Каналы : 2 канала
Расположение каналов : Front: L R
Частота : 48,0 КГц
Битовая глубина : 16 бит
Метод сжатия : С потерями
Размер потока : 151 Мбайт (10%)
Выравнивание : Разделение по промежуткам
Продолжительность промежутка : 42 мс. (1,00 видеокадр)
Время предзагрузки промежутка : 500 мс.



Показать сообщения:    

Текущее время: 06-Дек 11:09

Часовой пояс: UTC + 3


Вы не можете начинать темы
Вы не можете отвечать на сообщения
Вы не можете редактировать свои сообщения
Вы не можете удалять свои сообщения
Вы не можете голосовать в опросах
Вы не можете прикреплять файлы к сообщениям
Вы не можете скачивать файлы