Герой / Актёр / Nayak / The Hero (Сатьяджит Рей / Satyajit Ray) [1966, Индия, Драма, DVDRip] VO (Бахурани)


Статистика раздачи [Обновить пиров]
Размер:  1.47 GB   |    Зарегистрирован:  11 месяцев 5 дней   |    Скачан:  0 раз

Полного источника не было: Никогда

 
   
 
 
 

[Цитировать]

Герой / Актёр / Nayak / The Hero-- Страна: Индия
Жанр: Драма
Год выпуска: 1966
Продолжительность: 01:56:53
Перевод: Oдноголосый закадровый (Бахурани)
Cубтитры: нет
Оригинальная аудиодорожка: нет--Режиссер: Сатьяджит Рей / Satyajit Ray--В ролях: Уттам Кумар, Шармила Тагор, Биресвар Сен, Сомен Бозе, Нирмал Гхош, Премангшу Бозе, Сумита Саньял, Ранджит Сен, Барати Деви, Лали Чоудхури, Каму Мукхерджи, Сусмита Мукхерджи, Субрата Сеншарма, Джамуна Сина, Хиралал, Джогеш Чаттерджи, Сатья Банерджи, Гопал Дэ--Описание: Знаменитого киноактёра Ариндама, звезду бенгальского кино, приглашают в столицу, чтобы вручить ему престижную награду. Билеты на самолёт оказались распроданы, и ему приходится путешествовать из Калькутты в Нью Дели поездом. Он очень расстроен: утренние газеты написали о том, что он оказался замешанным в скандале, а его последний фильм не имел обычного успеха у публики. В вагоне-ресторане он встречает Адити, юную журналистку, которая сотрудничает с серьёзным журналом для женщин. Она презирает людей, подобных Ариндаму, и хочет незаметно взять у него интервью, полагая, что из этого выйдет разоблачительная статья, которая будет иметь успех у читателей.--Предоставленные материалы: larisa_k
Перевод субтитров с английского: nickk
Сведение звука: pca1962--Сэмпл: http://multi-up.com/1081544
Качество видео: DVDRip
Формат видео: AVI
Видео: XviD, 640x464, 25.00 fps, 1601 kbps
Аудио: AC3, 48 kHz, 2.0 (stereo), 192 kbps (русский)-
-

Награды

* Best Screenplay and Story, New Delhi, 1967
* Critics' Prize (Unicrit award), Berlin, 1966
* Special Jury Award, Berlin, 1966

-
-

MediaInfo

General
Complete name : Geroy.1966.DVDRip.XviD.pca1962.avi
Format : AVI
Format/Info : Audio Video Interleave
File size : 1.47 GiB
Duration : 1h 56mn
Overall bit rate : 1 803 Kbps
Movie name : Nayak.1966
Director : Mixing audio rus - pca1962
Genre : Drama
Writing application : VirtualDubMod 1.5.10.2 (build 2542/release)
Original source form/Name : Movie
Video
ID : 0
Format : MPEG-4 Visual
Format profile : Advanced Simple@L5
Format settings, BVOP : 1
Format settings, QPel : No
Format settings, GMC : No warppoints
Format settings, Matrix : Default (MPEG)
Codec ID : XVID
Codec ID/Hint : XviD
Duration : 1h 56mn
Bit rate : 1 601 Kbps
Width : 640 pixels
Height : 464 pixels
Display aspect ratio : 1.379
Frame rate : 25.000 fps
Color space : YUV
Chroma subsampling : 4:2:0
Bit depth : 8 bits
Scan type : Progressive
Compression mode : Lossy
Bits/(Pixel*Frame) : 0.216
Stream size : 1.31 GiB (89%)
Writing library : XviD 1.1.2 (UTC 2006-11-01)
Audio
ID : 1
Format : AC-3
Format/Info : Audio Coding 3
Mode extension : CM (complete main)
Format settings, Endianness : Big
Codec ID : 2000
Duration : 1h 56mn
Bit rate mode : Constant
Bit rate : 192 Kbps
Channel(s) : 2 channels
Channel positions : Front: L R
Sampling rate : 48.0 KHz
Compression mode : Lossy
Stream size : 161 MiB (11%)
Alignment : Split accross interleaves
Interleave, duration : 40 ms (1.00 video frame)
Interleave, preload duratio : 500 ms

-
-

Скриншот c названием фильма

[teatrix.ru].t12429.torrent 
Торрент: Зарегистрирован [ 2015-12-30 09:55 ] · 72B3E5BBA8579A4A28F1DEDB3E4E01BA4B462589

Скачать .torrent

Скачать

15 KB

Статус: проверено
Скачан: 0 раз
Размер: 1.47 GB
terms.php



Быстрый ответ

Имя:

      
Для отправки сообщений необходимо включить JavaScript
Показать сообщения:    

Текущее время: 05-Дек 01:26

Часовой пояс: UTC + 3


Вы можете начинать темы
Вы можете отвечать на сообщения
Вы не можете редактировать свои сообщения
Вы не можете удалять свои сообщения
Вы не можете голосовать в опросах
Вы не можете прикреплять файлы к сообщениям
Вы можете скачивать файлы