Песнь дороги / Pather Panchali (Сатьяджит Рай / Satyajit Ray) [1955, Индия, драма, HDRip] MVO (СВ-Дубль) + AVO (Визгунов) + Sub Rus, Eng + original


 

[Цитировать]

Песнь дороги / Pather Panchali
Страна: Индия
Жанр: драма
Год выпуска: 1955
Продолжительность: 02:05:52
Перевод: Профессиональный (многоголосый закадровый) - студия СВ-Дубль
Перевод: Авторский (одноголосый закадровый) - Сергей Визгунов
Cубтитры: русские (camenzind), английские
Оригинальная аудиодорожка: бенгальский

Режиссер: Сатьяджит Рай / Satyajit Ray
В ролях: Кану Баннерджи, Каруна Баннерджи, Чунибала Деви, Ума Дас Гупта, Субир Баннерджи, Рунки Баннерджи, Реба Деви, Апарна Деви, Тулси Чакраборти, Харен Баннерджи
Описание: По роману Бибхутибхусана Бандопадхайя.
История о каждодневной борьбе за выживание и постепенном упадке бедной семьи, живущей в бенгальской деревне. Отец, начинающий писатель, отправляется в город на заработки, оставив жену заботиться о детях и престарелой тётушке. Через натиск постоянных нападок соседей, нищеты и необходимости искать пропитание зрителю показана истинная красота человеческого быта, семейных традиций и любви к природе.

Качество видео: HDRip
Формат видео: AVI
Видео: 656x480 (1.37:1), 23.976 fps, XviD build 73 ~1454 kbps avg, 0.19 bit/pixel
Аудио: 48 kHz, AC3 Dolby Digital, 2/0 (L,R) ch, ~192 kbps - многоголосый
отдельными файлами:
Аудио: 48 kHz, AC3 Dolby Digital, 2/0 (L,R) ch, ~192 kbps - авторский
Аудио: 48 kHz, AC3 Dolby Digital, 1 ch, ~192 kbps - оригинал

MediaInfo

Общее
Полное имя : H:\Pather.Panchali.1955.hdrip_[1.46]_[teko]\Pather Panchali.1955.Criterion.720p.
Формат : AVI
Формат/Информация : Audio Video Interleave
Размер файла : 1,46 Гбайт
Продолжительность : 2 ч. 5 м.
Общий поток : 1656 Кбит/сек
Программа кодирования : VirtualDubMod 1.5.10.3 | www.virtualdub-fr.org || (build 2550/release)
Библиотека кодирования : VirtualDubMod build 2550/release
Видео
Идентификатор : 0
Формат : MPEG-4 Visual
Профиль формата : Advanced Simple@L5
Параметр BVOP формата : 1
Параметр QPel формата : Нет
Параметр GMC формата : Без точки перехода
Параметр матрицы формата : Выборочная
Идентификатор кодека : XVID
Идентификатор кодека/Подсказка : XviD
Продолжительность : 2 ч. 5 м.
Битрейт : 1454 Кбит/сек
Ширина : 656 пикселей
Высота : 480 пикселей
Соотношение сторон : 4:3
Частота кадров : 23,976 кадра/сек
Цветовое пространство : YUV
Субдискретизация насыщенности : 4:2:0
Битовая глубина : 8 бит
Тип развёртки : Прогрессивная
Метод сжатия : С потерями
Бит/(Пиксели*Кадры) : 0.193
Размер потока : 1,28 Гбайт (88%)
Библиотека кодирования : XviD 73
Аудио
Идентификатор : 1
Формат : AC-3
Формат/Информация : Audio Coding 3
Расширение режима : CM (complete main)
Параметр Endianness формата : Big
Идентификатор кодека : 2000
Продолжительность : 2 ч. 5 м.
Вид битрейта : Постоянный
Битрейт : 192 Кбит/сек
Каналы : 2 канала
Расположение каналов : Front: L R
Частота : 48,0 КГц
Битовая глубина : 16 бит
Метод сжатия : С потерями
Размер потока : 173 Мбайт (12%)
Выравнивание : Разделение по промежуткам
Продолжительность промежутка : 42 мс. (1,00 видеокадр)
Время предзагрузки промежутка : 500 мс.



Показать сообщения:    

Текущее время: 03-Дек 05:29

Часовой пояс: UTC + 3


Вы не можете начинать темы
Вы не можете отвечать на сообщения
Вы не можете редактировать свои сообщения
Вы не можете удалять свои сообщения
Вы не можете голосовать в опросах
Вы не можете прикреплять файлы к сообщениям
Вы не можете скачивать файлы