KlassikHits, Teil 2 (Weber, Bartholdy, Schumann, Sarasate, Bach, Mozart, Schubert, Haydn) Herbert von Karajan, Anne-Sophie Mutter, Lang Lang, David Garrett, Peter Schreier, Sabine Meyer, Arthur Rubinstein ... [2015, Classical / Orchestral, HDTV 720p]


 

[Цитировать]

KlassikHits
Teil 2

-
Год выпуска: 2015
Лейбл: ZDF / 3sat
Жанр: Classical / Orchestral
Продолжительность: 00:44:44
Исполнители:
Herbert von Karajan
Anne-Sophie Mutter
Lang Lang
David Garrett
Peter Schreier
Sabine Meyer
Arthur Rubinstein
Alison Balsom
Треклист:
- Carl Maria von Weber - Freischütz: Ouvertüre (Herbert von Karajan)
- Felix Mendelssohn Bartholdy - Violinkonzert e-Moll (Anne-Sophie Mutter)
- Robert Schumann - Kinderszenen: Träumerei (Lang Lang)
- Pablo de Sarasate - Zigeunerweisen (David Garrett)
- Johann Sebastian Bach - 3. Orchestersuite: Air (Peter Schreier)
- Wolfgang Amadeus Mozart - Klarinettenkonzert: Adagio (Sabine Meyer)
- Franz Schubert - Impromptu op. 90, Nr. 4 (Arthur Rubinstein)
- Joseph Haydn - Trompetenkonzert: Finalsatz (Alison Balsom)
Доп. информация:
KlassikHits 3sat.de
Anne-Sophie Mutter Official Site
Anne-Sophie Mutter from Wikipedia, the free encyclopedia
Sabine Meyer Official Site
Sabine Meyer from Wikipedia, the free encyclopedia
Качество видео: HDTV 720p
Контейнер: TS
Видео кодек: H.264
Аудио кодек: AC3
Видео поток: 11.5 Mbps, 1280*720 (16:9), at 50.000 fps, AVC (High@L4.0) (CABAC / 6 Ref Frames)
Аудио поток: German, 256 Kbps, 48.0 KHz, 2 channels, MPEG Audio (Version 1) (Layer 2)
Аудио 2: 192 Kbps, 48.0 KHz, 2 channels, MPEG Audio (Version 1) (Layer 2)
Аудио 3: German, 448 Kbps, 48.0 KHz, 16 bits, 2 channels, AC-3
Аудио 4: Multiple languages, 192 Kbps, 48.0 KHz, 2 channels, MPEG Audio (Version 1) (Layer 2)
Источник: Digital Satellite > SkyStar HD2 (TechniSat) > raw data to HDD > Cypheros TS-Doctor > Smart Cutter (cut) > ts

MediaInfo

GeneralID : 8900 (0x22C4)Complete name : C:\rutracker.org_HD\3sat HD_KlassikHits, Teil 2.tsFormat : MPEG-TSFile size : 4.15 GiBDuration : 44mn 44sOverall bit rate mode : VariableOverall bit rate : 13.3 Mbps
VideoID : 6510 (0x196E)Menu ID : 11150 (0x2B8E)Format : AVCFormat/Info : Advanced Video CodecFormat profile : High@L4.0Format settings, CABAC : YesFormat settings, ReFrames : 6 framesCodec ID : 27Duration : 44mn 44sBit rate : 11.5 MbpsWidth : 1 280 pixelsHeight : 720 pixelsDisplay aspect ratio : 16:9Frame rate : 50.000 fpsColor space : YUVChroma subsampling : 4:2:0Bit depth : 8 bitsScan type : ProgressiveBits/(Pixel*Frame) : 0.250Stream size : 3.60 GiB (87%)Color primaries : BT.709Transfer characteristics : BT.709Matrix coefficients : BT.709
Audio #1ID : 6520 (0x1978)Menu ID : 11150 (0x2B8E)Format : MPEG AudioFormat version : Version 1Format profile : Layer 2Codec ID : 3Duration : 44mn 44sBit rate mode : ConstantBit rate : 256 KbpsChannel(s) : 2 channelsSampling rate : 48.0 KHzCompression mode : LossyDelay relative to video : -17msStream size : 81.9 MiB (2%)Language : German
Audio #2ID : 6521 (0x1979)Menu ID : 11150 (0x2B8E)Format : MPEG AudioFormat version : Version 1Format profile : Layer 2Codec ID : 3Duration : 44mn 44sBit rate mode : ConstantBit rate : 192 KbpsChannel(s) : 2 channelsSampling rate : 48.0 KHzCompression mode : LossyDelay relative to video : -17msStream size : 61.4 MiB (1%)
Audio #3ID : 6522 (0x197A)Menu ID : 11150 (0x2B8E)Format : AC-3Format/Info : Audio Coding 3Mode extension : CM (complete main)Format settings, Endianness : BigCodec ID : 6Duration : 44mn 44sBit rate mode : ConstantBit rate : 448 KbpsChannel(s) : 2 channelsChannel positions : Front: L RSampling rate : 48.0 KHzBit depth : 16 bitsCompression mode : LossyDelay relative to video : -28msStream size : 143 MiB (3%)Language : German
Audio #4ID : 6523 (0x197B)Menu ID : 11150 (0x2B8E)Format : MPEG AudioFormat version : Version 1Format profile : Layer 2Codec ID : 3Duration : 44mn 44sBit rate mode : ConstantBit rate : 192 KbpsChannel(s) : 2 channelsSampling rate : 48.0 KHzCompression mode : LossyDelay relative to video : -9msStream size : 61.4 MiB (1%)Language : Multiple languages



Показать сообщения:    

Текущее время: 09-Дек 20:26

Часовой пояс: UTC + 3


Вы не можете начинать темы
Вы не можете отвечать на сообщения
Вы не можете редактировать свои сообщения
Вы не можете удалять свои сообщения
Вы не можете голосовать в опросах
Вы не можете прикреплять файлы к сообщениям
Вы не можете скачивать файлы