(Opera, electronic) Karlheinz Stockhausen - Dienstag aus Licht \\ Tuesday from Light \\ Вторник из Света - 1996, FLAC (image+.cue) lossless


 

[Цитировать]

Karlheinz Stockhausen
DIENSTAG aus LICHT
- Жанр: Opera, electronic
Страна-производитель диска: Germany
Год издания диска: 1996
Издатель (лейбл): Stockhausen-Verlag, WDR
Дата записи: 1992
Аудиокодек: FLAC
Тип рипа: image+.cue
Битрейт аудио: lossless
Продолжительность: 2:32'56''
Источник: собственный рип
Наличие сканов в содержимом раздачи: да (только обложки)
Треклист:

СD1

[01] Tuesday Greeting - Welcome
[02] Peace Greeting
[03] Peace Greeting 2
[04] Peace Greeting 3
[05] Peace Greeting 4
[06] Peace Greeting 5
[07] Peace Greeting 6
[08] Act 1 Der Jahreslauf - Presentation
[09] MICHAEL - LUCIFER
[10] Entrance of the instrumentalists
[11] Lucifer's Welcome
[12] 1st TUTTI
[13] First Temptation
[14] First Incitement
[15] 2nd TUTTI
[16] Piccolo solo
[17] 3rd TUTTI with Saxophones
[18] Second Temptation
[19] Second Incitement
[20] Duet Harpsichord & Guitar
[21] 4th TUTTI
[22] Third Temptation
[23] Third Incitement
[24] 5th TUTTI
[25] Add Saxophones
[26] Solo Saxophone 1
[27] Solo Saxophone 2
[28] Solo Saxophone 3
[29] Fourth Temptation
[30] Add Percussion
[31] Fourth Incitement
[32] Calm
[33] Final Crescendo
[34] End
[35] Procession of the instrumentalists
[36] Coda - MICHAEL - LUCIFER

Лог создания рипа

Exact Audio Copy V1.0 beta 3 from 29. August 2011
EAC extraction logfile from 24. April 2013, 19:08
Karlheinz Stockhausen / Stockhausen - Dienstag aus LICHT (CD 40A)
Used drive : COMPAQ CD-ROM LTN403 Adapter: 0 ID: 0
Read mode : SecureUtilize accurate stream : YesDefeat audio cache : YesMake use of C2 pointers : No
Read offset correction : -1164Overread into Lead-In and Lead-Out : YesFill up missing offset samples with silence : YesDelete leading and trailing silent blocks : NoNull samples used in CRC calculations : YesUsed interface : Native Win32 interface for Win NT & 2000
Used output format : User Defined EncoderSelected bitrate : 128 kBit/sQuality : HighAdd ID3 tag : NoCommand line compressor : C:\Program Files\FLAC\flac.exeAdditional command line options : -T "COMMENT=rip by el coronel, rutracker.org" -8 -V %source%
TOC of the extracted CD
Track | Start | Length | Start sector | End sector --------------------------------------------------------- 1 | 0:00.00 | 1:27.25 | 0 | 6549 2 | 1:27.25 | 4:01.27 | 6550 | 24651 3 | 5:28.52 | 4:04.28 | 24652 | 42979 4 | 9:33.05 | 4:07.55 | 42980 | 61559 5 | 13:40.60 | 2:03.22 | 61560 | 70806 6 | 15:44.07 | 2:49.10 | 70807 | 83491 7 | 18:33.17 | 2:27.13 | 83492 | 94529 8 | 21:00.30 | 0:59.65 | 94530 | 99019 9 | 22:00.20 | 1:16.00 | 99020 | 104719 10 | 23:16.20 | 1:20.05 | 104720 | 110724 11 | 24:36.25 | 2:12.25 | 110725 | 120649 12 | 26:48.50 | 7:01.20 | 120650 | 152244 13 | 33:49.70 | 1:53.60 | 152245 | 160779 14 | 35:43.55 | 0:38.32 | 160780 | 163661 15 | 36:22.12 | 0:55.25 | 163662 | 167811 16 | 37:17.37 | 2:17.45 | 167812 | 178131 17 | 39:35.07 | 1:41.65 | 178132 | 185771 18 | 41:16.72 | 0:46.00 | 185772 | 189221 19 | 42:02.72 | 0:55.00 | 189222 | 193346 20 | 42:57.72 | 1:36.10 | 193347 | 200556 21 | 44:34.07 | 5:40.68 | 200557 | 226124 22 | 50:15.00 | 1:51.05 | 226125 | 234454 23 | 52:06.05 | 0:40.10 | 234455 | 237464 24 | 52:46.15 | 0:41.37 | 237465 | 240576 25 | 53:27.52 | 1:47.23 | 240577 | 248624 26 | 55:15.00 | 2:07.12 | 248625 | 258161 27 | 57:22.12 | 1:05.40 | 258162 | 263076 28 | 58:27.52 | 1:06.50 | 263077 | 268076 29 | 59:34.27 | 1:08.48 | 268077 | 273224 30 | 60:43.00 | 0:35.67 | 273225 | 275916 31 | 61:18.67 | 3:15.68 | 275917 | 290609 32 | 64:34.60 | 0:48.27 | 290610 | 294236 33 | 65:23.12 | 3:48.38 | 294237 | 311374 34 | 69:11.50 | 1:21.65 | 311375 | 317514 35 | 70:33.40 | 4:27.45 | 317515 | 337584 36 | 75:01.10 | 2:56.65 | 337585 | 350849
Range status and errors
Selected range
Filename G:\Music\Stockhausen - Dienstag aus LICHT\Stockhausen - Dienstag aus LICHT (CD 40A).wav
Peak level 99.9 % Extraction speed 3.0 X Range quality 99.9 % Test CRC E1257DA5 Copy CRC E1257DA5 Copy OK
No errors occurred
AccurateRip summary
Track 1 not present in databaseTrack 2 not present in databaseTrack 3 not present in databaseTrack 4 not present in databaseTrack 5 not present in databaseTrack 6 not present in databaseTrack 7 not present in databaseTrack 8 not present in databaseTrack 9 not present in databaseTrack 10 not present in databaseTrack 11 not present in databaseTrack 12 not present in databaseTrack 13 not present in databaseTrack 14 not present in databaseTrack 15 not present in databaseTrack 16 not present in databaseTrack 17 not present in databaseTrack 18 not present in databaseTrack 19 not present in databaseTrack 20 not present in databaseTrack 21 not present in databaseTrack 22 not present in databaseTrack 23 not present in databaseTrack 24 not present in databaseTrack 25 not present in databaseTrack 26 not present in databaseTrack 27 not present in databaseTrack 28 not present in databaseTrack 29 not present in databaseTrack 30 not present in databaseTrack 31 not present in databaseTrack 32 not present in databaseTrack 33 not present in databaseTrack 34 not present in databaseTrack 35 not present in databaseTrack 36 not present in database
None of the tracks are present in the AccurateRip database
End of status report
==== Log checksum 2ECC38E6A93DA99ACDA8AFA81DBE56B45316BE181464122C76D5FC0E3424F18A ====

Содержание индексной карты (.CUE)

REM GENRE AvantgardeREM DATE 1996REM DISCID 1A124624REM COMMENT "ExactAudioCopy v1.0b3"PERFORMER "Karlheinz Stockhausen"TITLE "Stockhausen CD 40A Dienstag aus LICHT"FILE "Stockhausen CD 40A - Dienstag aus LICHT.flac" WAVE TRACK 01 AUDIO TITLE "Tuesday Greeting - Welcome" PERFORMER "Karlheinz Stockhausen" INDEX 01 00:00:00 TRACK 02 AUDIO TITLE "Tuesday Greeting - Peace Greeting" PERFORMER "Karlheinz Stockhausen" INDEX 01 01:27:25 TRACK 03 AUDIO TITLE "Tuesday Greeting - Peace Greeting 2" PERFORMER "Karlheinz Stockhausen" INDEX 01 05:28:52 TRACK 04 AUDIO TITLE "Tuesday Greeting - Peace Greeting 3" PERFORMER "Karlheinz Stockhausen" INDEX 01 09:33:05 TRACK 05 AUDIO TITLE "Tuesday Greeting - Peace Greeting 4" PERFORMER "Karlheinz Stockhausen" INDEX 01 13:40:60 TRACK 06 AUDIO TITLE "Tuesday Greeting - Peace Greeting 5" PERFORMER "Karlheinz Stockhausen" INDEX 01 15:44:07 TRACK 07 AUDIO TITLE "Tuesday Greeting - Peace Greeting 6" PERFORMER "Karlheinz Stockhausen" INDEX 01 18:33:17 TRACK 08 AUDIO TITLE "Act 1 Der Jahreslauf - Presentation" PERFORMER "Karlheinz Stockhausen" INDEX 01 21:00:30 TRACK 09 AUDIO TITLE "Act 1 Der Jahreslauf - MICHAEL - LUCIFER" PERFORMER "Karlheinz Stockhausen" INDEX 01 22:00:20 TRACK 10 AUDIO TITLE "Act 1 Der Jahreslauf - Entrance of the instrumentalists" PERFORMER "Karlheinz Stockhausen" INDEX 01 23:16:20 TRACK 11 AUDIO TITLE "Act 1 Der Jahreslauf - Lucifer's Welcome" PERFORMER "Karlheinz Stockhausen" INDEX 01 24:36:25 TRACK 12 AUDIO TITLE "Act 1 Der Jahreslauf - 1st TUTTI" PERFORMER "Karlheinz Stockhausen" INDEX 01 26:48:50 TRACK 13 AUDIO TITLE "Act 1 Der Jahreslauf - First Temptation" PERFORMER "Karlheinz Stockhausen" INDEX 01 33:49:70 TRACK 14 AUDIO TITLE "Act 1 Der Jahreslauf - First Incitement" PERFORMER "Karlheinz Stockhausen" INDEX 01 35:43:55 TRACK 15 AUDIO TITLE "Act 1 Der Jahreslauf - 2nd TUTTI" PERFORMER "Karlheinz Stockhausen" INDEX 01 36:22:12 TRACK 16 AUDIO TITLE "Act 1 Der Jahreslauf - Piccolo solo" PERFORMER "Karlheinz Stockhausen" INDEX 01 37:17:37 TRACK 17 AUDIO TITLE "Act 1 Der Jahreslauf - 3rd TUTTI with Saxophones" PERFORMER "Karlheinz Stockhausen" INDEX 01 39:35:07 TRACK 18 AUDIO TITLE "Act 1 Der Jahreslauf - Second Temptation" PERFORMER "Karlheinz Stockhausen" INDEX 01 41:16:72 TRACK 19 AUDIO TITLE "Act 1 Der Jahreslauf - Second Incitement" PERFORMER "Karlheinz Stockhausen" INDEX 01 42:02:72 TRACK 20 AUDIO TITLE "Act 1 Der Jahreslauf - Duet Harpsichord & Guitar" PERFORMER "Karlheinz Stockhausen" INDEX 01 42:57:72 TRACK 21 AUDIO TITLE "Act 1 Der Jahreslauf - 4th TUTTI" PERFORMER "Karlheinz Stockhausen" INDEX 00 44:33:62 INDEX 01 44:34:07 TRACK 22 AUDIO TITLE "Act 1 Der Jahreslauf - Third Temptation" PERFORMER "Karlheinz Stockhausen" INDEX 01 50:15:00 TRACK 23 AUDIO TITLE "Act 1 Der Jahreslauf - Third Incitement" PERFORMER "Karlheinz Stockhausen" INDEX 01 52:06:05 TRACK 24 AUDIO TITLE "Act 1 Der Jahreslauf - 5th TUTTI" PERFORMER "Karlheinz Stockhausen" INDEX 00 52:45:70 INDEX 01 52:46:15 TRACK 25 AUDIO TITLE "Act 1 Der Jahreslauf - Add Saxophones" PERFORMER "Karlheinz Stockhausen" INDEX 01 53:27:52 TRACK 26 AUDIO TITLE "Act 1 Der Jahreslauf - Solo Saxophone 1" PERFORMER "Karlheinz Stockhausen" INDEX 01 55:15:00 TRACK 27 AUDIO TITLE "Act 1 Der Jahreslauf - Solo Saxophone 2" PERFORMER "Karlheinz Stockhausen" INDEX 01 57:22:12 TRACK 28 AUDIO TITLE "Act 1 Der Jahreslauf - Solo Saxophone 3" PERFORMER "Karlheinz Stockhausen" INDEX 01 58:27:52 TRACK 29 AUDIO TITLE "Act 1 Der Jahreslauf - Fourth Temptation" PERFORMER "Karlheinz Stockhausen" INDEX 01 59:34:27 TRACK 30 AUDIO TITLE "Act 1 Der Jahreslauf - Add Percussion" PERFORMER "Karlheinz Stockhausen" INDEX 01 60:43:00 TRACK 31 AUDIO TITLE "Act 1 Der Jahreslauf - Fourth Incitement" PERFORMER "Karlheinz Stockhausen" INDEX 01 61:18:67 TRACK 32 AUDIO TITLE "Act 1 Der Jahreslauf - Calm" PERFORMER "Karlheinz Stockhausen" INDEX 01 64:34:60 TRACK 33 AUDIO TITLE "Act 1 Der Jahreslauf - Final Crescendo" PERFORMER "Karlheinz Stockhausen" INDEX 01 65:23:12 TRACK 34 AUDIO TITLE "Act 1 Der Jahreslauf - End" PERFORMER "Karlheinz Stockhausen" INDEX 01 69:11:50 TRACK 35 AUDIO TITLE "Act 1 Der Jahreslauf - Procession of the instrumentalists" PERFORMER "Karlheinz Stockhausen" INDEX 01 70:33:40 TRACK 36 AUDIO TITLE "Act 1 Der Jahreslauf - Coda - MICHAEL - LUCIFER" PERFORMER "Karlheinz Stockhausen" INDEX 01 75:01:10

СD2

[01] Act 2 Invasion-Explosion with Farewell - First Air Defense
[02] First Air Defense - 1st shot
[03] First Air Defense - 2nd shot
[04] First Air Defense - 3rd shot
[05] First Air Defense - 4th shot
[06] First Air Defense - Sound-bomb 24
[07] First Air Defense - 5th shot
[08] First Air Defense - Sound-bomb 25
[09] First Air Defense - Sound-bomb 26
[10] First Air Defense - Sound Bomb 27
[11] 1st Invasion - Sound-bomb 28
[12] 1st Invasion - Sound-bomb 29
[13] 1st Invasion - Sound-bomb 30
[14] 1st Invasion - Sound-bomb 31
[15] 1st Invasion - Sound-bomb 32
[16] 1st Invasion - Sound-bomb 33
[17] 1st Invasion - 17th shot
[18] 1st Invasion - 18th shot
[19] 1st Invasion - Double downing
[20] 1st Invasion - 19th shot
[21] 1st Invasion - 20th shot
[22] 1st Invasion - Triple downing
[23] 1st Invasion - Sound-bomb 49
[24] 1st Invasion - 21st shot
[25] 1st Invasion - Sound-bomb 54
[26] 1st Invasion - 22nd shot
[27] 1st Invasion - Quadruple downing
[28] 1st Invasion - Sound-bomb 59
[29] 1st Invasion - 22nd shot
[30] 1st Invasion - Sound-bomb 63
[31] 1st Invasion - 24th shot
[32] 1st Invasion - Calmness
[33] Second Air Defense
[34] Second Air Defense - 24th shot
[35] 2nd Invasion
[36] 2nd Invasion - 26th shot
[37] 2nd Invasion - 27th shot
[38] 2nd Invasion - 28th shot
[39] 2nd Invasion - 30th shot
[40] 2nd Invasion - 33rd shot
[41] 2nd Invasion - 35th shot
[42] 2nd Invasion - 37th shot
[43] 2nd Invasion - 38th shot
[44] 2nd Invasion - 40th shot
[45] 2nd Invasion - 41st shot
[46] 2nd Invasion - 42nd shot
[47] 2nd Invasion - 43rd shot
[48] 2nd Invasion - 44th shot
[49] 2nd Invasion - 45th shot
[50] 2nd Invasion - 47th shot
[51] 2nd Invasion - Casualty
[52] 2nd Invasion - Casualty 2
[53] Pieta
[54] Pieta 23
[55] Pieta 32
[56] Pieta 84
[57] Pieta 130
[58] Pieta 149
[59] Pieta 201
[60] 3rd Invasion
[61] 3rd Invasion - 4th shot
[62] 3rd Invasion - 5th shot
[63] 3rd Invasion - 7th shot
[64] 3rd Invasion - 9th shot
[65] 3rd Invasion - 1st EXPLOSION
[66] 3rd Invasion - 12th shot
[67] 3rd Invasion - 13th shot
[68] 3rd Invasion - 2nd EXPLOSION
[69] 3rd Invasion - 17th shot
[70] Beyond
[71] Beyond 3
[72] Beyond 7
[73] Beyond 14
[74] Beyond 18
[75] Beyond 22
[76] Beyond 24
[77] Beyond 28
[78] Beyond 35
[79] Beyond 39
[80] Synthi-Fou
[81] Synthi-Fou 11
[82] Synthi-Fou 16
[83] Synthi-Fou 22
[84] Synthi-Fou 29
[85] Synthi-Fou 36
[86] Synthi-Fou 37
[87] Synthi-Fou 45
[88] Synthi-Fou (end)
[89] Farewell
[90] Farewell 11
[91] Farewell 16
[92] Farewell 22
[93] Farewell 29
[94] Farewell 39
[95] Farewell 42
[96] Farewell 51
[97] Farewell 55
[98] Farewell 58
[99] Farewell 63 (end)

Лог создания рипа

Exact Audio Copy V1.0 beta 3 from 29. August 2011
EAC extraction logfile from 24. April 2013, 20:17
Karlheinz Stockhausen / Stockhausen - Dienstag aus LICHT (CD 40B)
Used drive : COMPAQ CD-ROM LTN403 Adapter: 0 ID: 0
Read mode : SecureUtilize accurate stream : YesDefeat audio cache : YesMake use of C2 pointers : No
Read offset correction : -1164Overread into Lead-In and Lead-Out : YesFill up missing offset samples with silence : YesDelete leading and trailing silent blocks : NoNull samples used in CRC calculations : YesUsed interface : Native Win32 interface for Win NT & 2000
Used output format : User Defined EncoderSelected bitrate : 128 kBit/sQuality : HighAdd ID3 tag : NoCommand line compressor : C:\Program Files\FLAC\flac.exeAdditional command line options : -T "COMMENT=rip by el coronel, rutracker.org" -8 -V %source%
TOC of the extracted CD
Track | Start | Length | Start sector | End sector --------------------------------------------------------- 1 | 0:00.00 | 1:06.12 | 0 | 4961 2 | 1:06.12 | 0:55.70 | 4962 | 9156 3 | 2:02.07 | 0:28.08 | 9157 | 11264 4 | 2:30.15 | 2:23.02 | 11265 | 21991 5 | 4:53.17 | 0:49.50 | 21992 | 25716 6 | 5:42.67 | 1:41.05 | 25717 | 33296 7 | 7:23.72 | 0:14.15 | 33297 | 34361 8 | 7:38.12 | 0:20.45 | 34362 | 35906 9 | 7:58.57 | 0:21.68 | 35907 | 37549 10 | 8:20.50 | 0:21.17 | 37550 | 39141 11 | 8:41.67 | 0:21.20 | 39142 | 40736 12 | 9:03.12 | 0:20.45 | 40737 | 42281 13 | 9:23.57 | 0:20.43 | 42282 | 43824 14 | 9:44.25 | 0:23.15 | 43825 | 45564 15 | 10:07.40 | 0:20.45 | 45565 | 47109 16 | 10:28.10 | 0:18.65 | 47110 | 48524 17 | 10:47.00 | 0:39.40 | 48525 | 51489 18 | 11:26.40 | 0:16.30 | 51490 | 52719 19 | 11:42.70 | 0:50.22 | 52720 | 56491 20 | 12:33.17 | 0:40.40 | 56492 | 59531 21 | 13:13.57 | 0:15.28 | 59532 | 60684 22 | 13:29.10 | 0:30.20 | 60685 | 62954 23 | 13:59.30 | 0:22.35 | 62955 | 64639 24 | 14:21.65 | 0:26.20 | 64640 | 66609 25 | 14:48.10 | 0:12.45 | 66610 | 67554 26 | 15:00.55 | 0:14.60 | 67555 | 68664 27 | 15:15.40 | 0:31.12 | 68665 | 71001 28 | 15:46.52 | 0:16.45 | 71002 | 72246 29 | 16:03.22 | 0:32.20 | 72247 | 74666 30 | 16:35.42 | 0:08.08 | 74667 | 75274 31 | 16:43.50 | 0:18.47 | 75275 | 76671 32 | 17:02.22 | 2:11.20 | 76672 | 86516 33 | 19:13.42 | 3:32.70 | 86517 | 102486 34 | 22:46.37 | 0:20.65 | 102487 | 104051 35 | 23:07.27 | 0:36.25 | 104052 | 106776 36 | 23:43.52 | 0:23.63 | 106777 | 108564 37 | 24:07.40 | 0:25.07 | 108565 | 110446 38 | 24:32.47 | 0:36.03 | 110447 | 113149 39 | 25:08.50 | 0:19.05 | 113150 | 114579 40 | 25:27.55 | 0:20.55 | 114580 | 116134 41 | 25:48.35 | 0:18.25 | 116135 | 117509 42 | 26:06.60 | 0:41.67 | 117510 | 120651 43 | 26:48.52 | 0:28.13 | 120652 | 122764 44 | 27:16.65 | 0:24.02 | 122765 | 124566 45 | 27:40.67 | 0:26.53 | 124567 | 126569 46 | 28:07.45 | 0:23.57 | 126570 | 128351 47 | 28:31.27 | 0:19.70 | 128352 | 129846 48 | 28:51.22 | 0:17.18 | 129847 | 131139 49 | 29:08.40 | 0:25.65 | 131140 | 133079 50 | 29:34.30 | 0:12.10 | 133080 | 133989 51 | 29:46.40 | 3:20.35 | 133990 | 149024 52 | 33:07.00 | 0:10.52 | 149025 | 149826 53 | 33:17.52 | 2:21.48 | 149827 | 160449 54 | 35:39.25 | 0:49.60 | 160450 | 164184 55 | 36:29.10 | 3:54.60 | 164185 | 181794 56 | 40:23.70 | 2:45.17 | 181795 | 194186 57 | 43:09.12 | 1:16.68 | 194187 | 199954 58 | 44:26.05 | 3:44.65 | 199955 | 216819 59 | 48:10.70 | 2:22.00 | 216820 | 227469 60 | 50:32.70 | 0:22.27 | 227470 | 229146 61 | 50:55.22 | 0:22.55 | 229147 | 230851 62 | 51:18.02 | 0:14.38 | 230852 | 231939 63 | 51:32.40 | 0:14.37 | 231940 | 233026 64 | 51:47.02 | 0:13.28 | 233027 | 234029 65 | 52:00.30 | 0:24.57 | 234030 | 235886 66 | 52:25.12 | 0:07.28 | 235887 | 236439 67 | 52:32.40 | 0:16.65 | 236440 | 237704 68 | 52:49.30 | 0:29.25 | 237705 | 239904 69 | 53:18.55 | 0:15.47 | 239905 | 241076 70 | 53:34.27 | 0:14.08 | 241077 | 242134 71 | 53:48.35 | 0:24.12 | 242135 | 243946 72 | 54:12.47 | 0:26.55 | 243947 | 245951 73 | 54:39.27 | 0:27.23 | 245952 | 247999 74 | 55:06.50 | 0:34.55 | 248000 | 250604 75 | 55:41.30 | 0:13.30 | 250605 | 251609 76 | 55:54.60 | 0:24.47 | 251610 | 253456 77 | 56:19.32 | 0:26.73 | 253457 | 255479 78 | 56:46.30 | 0:27.52 | 255480 | 257556 79 | 57:14.07 | 0:34.20 | 257557 | 260126 80 | 57:48.27 | 0:17.28 | 260127 | 261429 81 | 58:05.55 | 0:16.50 | 261430 | 262679 82 | 58:22.30 | 0:27.55 | 262680 | 264759 83 | 58:50.10 | 0:44.65 | 264760 | 268124 84 | 59:35.00 | 0:52.55 | 268125 | 272079 85 | 60:27.55 | 0:27.57 | 272080 | 274161 86 | 60:55.37 | 1:20.30 | 274162 | 280191 87 | 62:15.67 | 0:43.18 | 280192 | 283434 88 | 62:59.10 | 0:17.37 | 283435 | 284746 89 | 63:16.47 | 0:10.50 | 284747 | 285546 90 | 63:27.22 | 0:15.48 | 285547 | 286719 91 | 63:42.70 | 0:26.12 | 286720 | 288681 92 | 64:09.07 | 0:41.25 | 288682 | 291781 93 | 64:50.32 | 0:47.43 | 291782 | 295349 94 | 65:38.00 | 0:35.67 | 295350 | 298041 95 | 66:13.67 | 0:45.28 | 298042 | 301444 96 | 66:59.20 | 0:40.50 | 301445 | 304494 97 | 67:39.70 | 0:39.50 | 304495 | 307469 98 | 68:19.45 | 0:17.72 | 307470 | 308816 99 | 68:37.42 | 6:20.33 | 308817 | 337349
Range status and errors
Selected range
Filename G:\Music\Stockhausen - Dienstag aus LICHT\Stockhausen - Dienstag aus LICHT (CD 40B).wav
Peak level 99.9 % Extraction speed 2.9 X Range quality 99.9 % Test CRC 1E6133A6 Copy CRC 1E6133A6 Copy OK
No errors occurred
AccurateRip summary
Track 1 not present in databaseTrack 2 not present in databaseTrack 3 not present in databaseTrack 4 not present in databaseTrack 5 not present in databaseTrack 6 not present in databaseTrack 7 not present in databaseTrack 8 not present in databaseTrack 9 not present in databaseTrack 10 not present in databaseTrack 11 not present in databaseTrack 12 not present in databaseTrack 13 not present in databaseTrack 14 not present in databaseTrack 15 not present in databaseTrack 16 not present in databaseTrack 17 not present in databaseTrack 18 not present in databaseTrack 19 not present in databaseTrack 20 not present in databaseTrack 21 not present in databaseTrack 22 not present in databaseTrack 23 not present in databaseTrack 24 not present in databaseTrack 25 not present in databaseTrack 26 not present in databaseTrack 27 not present in databaseTrack 28 not present in databaseTrack 29 not present in databaseTrack 30 not present in databaseTrack 31 not present in databaseTrack 32 not present in databaseTrack 33 not present in databaseTrack 34 not present in databaseTrack 35 not present in databaseTrack 36 not present in databaseTrack 37 not present in databaseTrack 38 not present in databaseTrack 39 not present in databaseTrack 40 not present in databaseTrack 41 not present in databaseTrack 42 not present in databaseTrack 43 not present in databaseTrack 44 not present in databaseTrack 45 not present in databaseTrack 46 not present in databaseTrack 47 not present in databaseTrack 48 not present in databaseTrack 49 not present in databaseTrack 50 not present in databaseTrack 51 not present in databaseTrack 52 not present in databaseTrack 53 not present in databaseTrack 54 not present in databaseTrack 55 not present in databaseTrack 56 not present in databaseTrack 57 not present in databaseTrack 58 not present in databaseTrack 59 not present in databaseTrack 60 not present in databaseTrack 61 not present in databaseTrack 62 not present in databaseTrack 63 not present in databaseTrack 64 not present in databaseTrack 65 not present in databaseTrack 66 not present in databaseTrack 67 not present in databaseTrack 68 not present in databaseTrack 69 not present in databaseTrack 70 not present in databaseTrack 71 not present in databaseTrack 72 not present in databaseTrack 73 not present in databaseTrack 74 not present in databaseTrack 75 not present in databaseTrack 76 not present in databaseTrack 77 not present in databaseTrack 78 not present in databaseTrack 79 not present in databaseTrack 80 not present in databaseTrack 81 not present in databaseTrack 82 not present in databaseTrack 83 not present in databaseTrack 84 not present in databaseTrack 85 not present in databaseTrack 86 not present in databaseTrack 87 not present in databaseTrack 88 not present in databaseTrack 89 not present in databaseTrack 90 not present in databaseTrack 91 not present in databaseTrack 92 not present in databaseTrack 93 not present in databaseTrack 94 not present in databaseTrack 95 not present in databaseTrack 96 not present in databaseTrack 97 not present in databaseTrack 98 not present in databaseTrack 99 not present in database
None of the tracks are present in the AccurateRip database
End of status report
==== Log checksum 45A1FA4BA03EA7E031950EBE04BB51C31066CA9C318C4307A226F041D9D3E31E ====

Содержание индексной карты (.CUE)

REM GENRE AvantgardeREM DATE 1996REM DISCID D5119263REM COMMENT "ExactAudioCopy v1.0b3"PERFORMER "Karlheinz Stockhausen"TITLE "Stockhausen CD 40B Dienstag aus LICHT"FILE "Stockhausen CD 40B - Dienstag aus LICHT.flac" WAVE TRACK 01 AUDIO TITLE "Act 2 Invasion-Explosion with Farewell - First Air Defense" PERFORMER "Karlheinz Stockhausen" INDEX 01 00:00:00 TRACK 02 AUDIO TITLE "Act 2 Invasion-Explosion with Farewell - First Air Defense - 1st shot" PERFORMER "Karlheinz Stockhausen" INDEX 01 01:06:12 TRACK 03 AUDIO TITLE "Act 2 Invasion-Explosion with Farewell - First Air Defense - 2nd shot" PERFORMER "Karlheinz Stockhausen" INDEX 00 02:02:06 INDEX 01 02:02:07 TRACK 04 AUDIO TITLE "Act 2 Invasion-Explosion with Farewell - First Air Defense - 3rd shot" PERFORMER "Karlheinz Stockhausen" INDEX 01 02:30:15 TRACK 05 AUDIO TITLE "Act 2 Invasion-Explosion with Farewell - First Air Defense - 4th shot" PERFORMER "Karlheinz Stockhausen" INDEX 01 04:53:17 TRACK 06 AUDIO TITLE "Act 2 Invasion-Explosion with Farewell - First Air Defense - Sound-bomb 24" PERFORMER "Karlheinz Stockhausen" INDEX 01 05:42:67 TRACK 07 AUDIO TITLE "Act 2 Invasion-Explosion with Farewell - First Air Defense - 5th shot" PERFORMER "Karlheinz Stockhausen" INDEX 01 07:23:72 TRACK 08 AUDIO TITLE "Act 2 Invasion-Explosion with Farewell - First Air Defense - Sound-bomb 25" PERFORMER "Karlheinz Stockhausen" INDEX 01 07:38:12 TRACK 09 AUDIO TITLE "Act 2 Invasion-Explosion with Farewell - First Air Defense - Sound-bomb 26" PERFORMER "Karlheinz Stockhausen" INDEX 01 07:58:57 TRACK 10 AUDIO TITLE "Act 2 Invasion-Explosion with Farewell - First Air Defense - Sound Bomb 27" PERFORMER "Karlheinz Stockhausen" INDEX 01 08:20:50 TRACK 11 AUDIO TITLE "Act 2 Invasion-Explosion with Farewell - 1st Invasion - Sound-bomb 28" PERFORMER "Karlheinz Stockhausen" INDEX 01 08:41:67 TRACK 12 AUDIO TITLE "Act 2 Invasion-Explosion with Farewell - 1st Invasion - Sound-bomb 29" PERFORMER "Karlheinz Stockhausen" INDEX 01 09:03:12 TRACK 13 AUDIO TITLE "Act 2 Invasion-Explosion with Farewell - 1st Invasion - Sound-bomb 30" PERFORMER "Karlheinz Stockhausen" INDEX 01 09:23:57 TRACK 14 AUDIO TITLE "Act 2 Invasion-Explosion with Farewell - 1st Invasion - Sound-bomb 31" PERFORMER "Karlheinz Stockhausen" INDEX 01 09:44:25 TRACK 15 AUDIO TITLE "Act 2 Invasion-Explosion with Farewell - 1st Invasion - Sound-bomb 32" PERFORMER "Karlheinz Stockhausen" INDEX 01 10:07:40 TRACK 16 AUDIO TITLE "Act 2 Invasion-Explosion with Farewell - 1st Invasion - Sound-bomb 33" PERFORMER "Karlheinz Stockhausen" INDEX 01 10:28:10 TRACK 17 AUDIO TITLE "Act 2 Invasion-Explosion with Farewell - 1st Invasion - 17th shot" PERFORMER "Karlheinz Stockhausen" INDEX 01 10:47:00 TRACK 18 AUDIO TITLE "Act 2 Invasion-Explosion with Farewell - 1st Invasion - 18th shot" PERFORMER "Karlheinz Stockhausen" INDEX 01 11:26:40 TRACK 19 AUDIO TITLE "Act 2 Invasion-Explosion with Farewell - 1st Invasion - Double downing" PERFORMER "Karlheinz Stockhausen" INDEX 01 11:42:70 TRACK 20 AUDIO TITLE "Act 2 Invasion-Explosion with Farewell - 1st Invasion - 19th shot" PERFORMER "Karlheinz Stockhausen" INDEX 01 12:33:17 TRACK 21 AUDIO TITLE "Act 2 Invasion-Explosion with Farewell - 1st Invasion - 20th shot" PERFORMER "Karlheinz Stockhausen" INDEX 01 13:13:57 TRACK 22 AUDIO TITLE "Act 2 Invasion-Explosion with Farewell - 1st Invasion - Triple downing" PERFORMER "Karlheinz Stockhausen" INDEX 01 13:29:10 TRACK 23 AUDIO TITLE "Act 2 Invasion-Explosion with Farewell - 1st Invasion - Sound-bomb 49" PERFORMER "Karlheinz Stockhausen" INDEX 01 13:59:30 TRACK 24 AUDIO TITLE "Act 2 Invasion-Explosion with Farewell - 1st Invasion - 21st shot" PERFORMER "Karlheinz Stockhausen" INDEX 01 14:21:65 TRACK 25 AUDIO TITLE "Act 2 Invasion-Explosion with Farewell - 1st Invasion - Sound-bomb 54" PERFORMER "Karlheinz Stockhausen" INDEX 01 14:48:10 TRACK 26 AUDIO TITLE "Act 2 Invasion-Explosion with Farewell - 1st Invasion - 22nd shot" PERFORMER "Karlheinz Stockhausen" INDEX 01 15:00:55 TRACK 27 AUDIO TITLE "Act 2 Invasion-Explosion with Farewell - 1st Invasion - Quadruple downing" PERFORMER "Karlheinz Stockhausen" INDEX 01 15:15:40 TRACK 28 AUDIO TITLE "Act 2 Invasion-Explosion with Farewell - 1st Invasion - Sound-bomb 59" PERFORMER "Karlheinz Stockhausen" INDEX 01 15:46:52 TRACK 29 AUDIO TITLE "Act 2 Invasion-Explosion with Farewell - 1st Invasion - 22nd shot" PERFORMER "Karlheinz Stockhausen" INDEX 01 16:03:22 TRACK 30 AUDIO TITLE "Act 2 Invasion-Explosion with Farewell - 1st Invasion - Sound-bomb 63" PERFORMER "Karlheinz Stockhausen" INDEX 01 16:35:42 TRACK 31 AUDIO TITLE "Act 2 Invasion-Explosion with Farewell - 1st Invasion - 24th shot" PERFORMER "Karlheinz Stockhausen" INDEX 01 16:43:50 TRACK 32 AUDIO TITLE "Act 2 Invasion-Explosion with Farewell - 1st Invasion - Calmness" PERFORMER "Karlheinz Stockhausen" INDEX 01 17:02:22 TRACK 33 AUDIO TITLE "Act 2 Invasion-Explosion with Farewell - Second Air Defense" PERFORMER "Karlheinz Stockhausen" INDEX 01 19:13:42 TRACK 34 AUDIO TITLE "Act 2 Invasion-Explosion with Farewell - Second Air Defense - 24th shot" PERFORMER "Karlheinz Stockhausen" INDEX 01 22:46:37 TRACK 35 AUDIO TITLE "Act 2 Invasion-Explosion with Farewell - 2nd Invasion" PERFORMER "Karlheinz Stockhausen" INDEX 01 23:07:27 TRACK 36 AUDIO TITLE "Act 2 Invasion-Explosion with Farewell - 2nd Invasion - 26th shot" PERFORMER "Karlheinz Stockhausen" INDEX 01 23:43:52 TRACK 37 AUDIO TITLE "Act 2 Invasion-Explosion with Farewell - 2nd Invasion - 27th shot" PERFORMER "Karlheinz Stockhausen" INDEX 01 24:07:40 TRACK 38 AUDIO TITLE "Act 2 Invasion-Explosion with Farewell - 2nd Invasion - 28th shot" PERFORMER "Karlheinz Stockhausen" INDEX 01 24:32:47 TRACK 39 AUDIO TITLE "Act 2 Invasion-Explosion with Farewell - 2nd Invasion - 30th shot" PERFORMER "Karlheinz Stockhausen" INDEX 01 25:08:50 TRACK 40 AUDIO TITLE "Act 2 Invasion-Explosion with Farewell - 2nd Invasion - 33rd shot" PERFORMER "Karlheinz Stockhausen" INDEX 01 25:27:55 TRACK 41 AUDIO TITLE "Act 2 Invasion-Explosion with Farewell - 2nd Invasion - 35th shot" PERFORMER "Karlheinz Stockhausen" INDEX 01 25:48:35 TRACK 42 AUDIO TITLE "Act 2 Invasion-Explosion with Farewell - 2nd Invasion - 37th shot" PERFORMER "Karlheinz Stockhausen" INDEX 01 26:06:60 TRACK 43 AUDIO TITLE "Act 2 Invasion-Explosion with Farewell - 2nd Invasion - 38th shot" PERFORMER "Karlheinz Stockhausen" INDEX 01 26:48:52 TRACK 44 AUDIO TITLE "Act 2 Invasion-Explosion with Farewell - 2nd Invasion - 40th shot" PERFORMER "Karlheinz Stockhausen" INDEX 01 27:16:65 TRACK 45 AUDIO TITLE "Act 2 Invasion-Explosion with Farewell - 2nd Invasion - 41st shot" PERFORMER "Karlheinz Stockhausen" INDEX 01 27:40:67 TRACK 46 AUDIO TITLE "Act 2 Invasion-Explosion with Farewell - 2nd Invasion - 42nd shot" PERFORMER "Karlheinz Stockhausen" INDEX 01 28:07:45 TRACK 47 AUDIO TITLE "Act 2 Invasion-Explosion with Farewell - 2nd Invasion - 43rd shot" PERFORMER "Karlheinz Stockhausen" INDEX 01 28:31:27 TRACK 48 AUDIO TITLE "Act 2 Invasion-Explosion with Farewell - 2nd Invasion - 44th shot" PERFORMER "Karlheinz Stockhausen" INDEX 01 28:51:22 TRACK 49 AUDIO TITLE "Act 2 Invasion-Explosion with Farewell - 2nd Invasion - 45th shot" PERFORMER "Karlheinz Stockhausen" INDEX 01 29:08:40 TRACK 50 AUDIO TITLE "Act 2 Invasion-Explosion with Farewell - 2nd Invasion - 47th shot" PERFORMER "Karlheinz Stockhausen" INDEX 01 29:34:30 TRACK 51 AUDIO TITLE "Act 2 Invasion-Explosion with Farewell - 2nd Invasion - Casualty" PERFORMER "Karlheinz Stockhausen" INDEX 00 29:46:20 INDEX 01 29:46:40 TRACK 52 AUDIO TITLE "Act 2 Invasion-Explosion with Farewell - 2nd Invasion - Casualty 2" PERFORMER "Karlheinz Stockhausen" INDEX 01 33:07:00 TRACK 53 AUDIO TITLE "Act 2 Invasion-Explosion with Farewell - Pieta" PERFORMER "Karlheinz Stockhausen" INDEX 01 33:17:52 TRACK 54 AUDIO TITLE "Act 2 Invasion-Explosion with Farewell - Pieta 23" PERFORMER "Karlheinz Stockhausen" INDEX 01 35:39:25 TRACK 55 AUDIO TITLE "Act 2 Invasion-Explosion with Farewell - Pieta 32" PERFORMER "Karlheinz Stockhausen" INDEX 01 36:29:10 TRACK 56 AUDIO TITLE "Act 2 Invasion-Explosion with Farewell - Pieta 84" PERFORMER "Karlheinz Stockhausen" INDEX 01 40:23:70 TRACK 57 AUDIO TITLE "Act 2 Invasion-Explosion with Farewell - Pieta 130" PERFORMER "Karlheinz Stockhausen" INDEX 01 43:09:12 TRACK 58 AUDIO TITLE "Act 2 Invasion-Explosion with Farewell - Pieta 149" PERFORMER "Karlheinz Stockhausen" INDEX 01 44:26:05 TRACK 59 AUDIO TITLE "Act 2 Invasion-Explosion with Farewell - Pieta 201" PERFORMER "Karlheinz Stockhausen" INDEX 01 48:10:70 TRACK 60 AUDIO TITLE "Act 2 Invasion-Explosion with Farewell - 3rd Invasion" PERFORMER "Karlheinz Stockhausen" INDEX 01 50:32:70 TRACK 61 AUDIO TITLE "Act 2 Invasion-Explosion with Farewell - 3rd Invasion - 4th shot" PERFORMER "Karlheinz Stockhausen" INDEX 01 50:55:22 TRACK 62 AUDIO TITLE "Act 2 Invasion-Explosion with Farewell - 3rd Invasion - 5th shot" PERFORMER "Karlheinz Stockhausen" INDEX 01 51:18:02 TRACK 63 AUDIO TITLE "Act 2 Invasion-Explosion with Farewell - 3rd Invasion - 7th shot" PERFORMER "Karlheinz Stockhausen" INDEX 01 51:32:40 TRACK 64 AUDIO TITLE "Act 2 Invasion-Explosion with Farewell - 3rd Invasion - 9th shot" PERFORMER "Karlheinz Stockhausen" INDEX 01 51:47:02 TRACK 65 AUDIO TITLE "Act 2 Invasion-Explosion with Farewell - 3rd Invasion - 1st EXPLOSION" PERFORMER "Karlheinz Stockhausen" INDEX 01 52:00:30 TRACK 66 AUDIO TITLE "Act 2 Invasion-Explosion with Farewell - 3rd Invasion - 12th shot" PERFORMER "Karlheinz Stockhausen" INDEX 01 52:25:12 TRACK 67 AUDIO TITLE "Act 2 Invasion-Explosion with Farewell - 3rd Invasion - 13th shot" PERFORMER "Karlheinz Stockhausen" INDEX 01 52:32:40 TRACK 68 AUDIO TITLE "Act 2 Invasion-Explosion with Farewell - 3rd Invasion - 2nd EXPLOSION" PERFORMER "Karlheinz Stockhausen" INDEX 01 52:49:30 TRACK 69 AUDIO TITLE "Act 2 Invasion-Explosion with Farewell - 3rd Invasion - 17th shot" PERFORMER "Karlheinz Stockhausen" INDEX 01 53:18:55 TRACK 70 AUDIO TITLE "Act 2 Invasion-Explosion with Farewell - Beyond" PERFORMER "Karlheinz Stockhausen" INDEX 01 53:34:27 TRACK 71 AUDIO TITLE "Act 2 Invasion-Explosion with Farewell - Beyond 3" PERFORMER "Karlheinz Stockhausen" INDEX 01 53:48:35 TRACK 72 AUDIO TITLE "Act 2 Invasion-Explosion with Farewell - Beyond 7" PERFORMER "Karlheinz Stockhausen" INDEX 01 54:12:47 TRACK 73 AUDIO TITLE "Act 2 Invasion-Explosion with Farewell - Beyond 14" PERFORMER "Karlheinz Stockhausen" INDEX 01 54:39:27 TRACK 74 AUDIO TITLE "Act 2 Invasion-Explosion with Farewell - Beyond 18" PERFORMER "Karlheinz Stockhausen" INDEX 01 55:06:50 TRACK 75 AUDIO TITLE "Act 2 Invasion-Explosion with Farewell - Beyond 22" PERFORMER "Karlheinz Stockhausen" INDEX 01 55:41:30 TRACK 76 AUDIO TITLE "Act 2 Invasion-Explosion with Farewell - Beyond 24" PERFORMER "Karlheinz Stockhausen" INDEX 01 55:54:60 TRACK 77 AUDIO TITLE "Act 2 Invasion-Explosion with Farewell - Beyond 28" PERFORMER "Karlheinz Stockhausen" INDEX 01 56:19:32 TRACK 78 AUDIO TITLE "Act 2 Invasion-Explosion with Farewell - Beyond 35" PERFORMER "Karlheinz Stockhausen" INDEX 01 56:46:30 TRACK 79 AUDIO TITLE "Act 2 Invasion-Explosion with Farewell - Beyond 39" PERFORMER "Karlheinz Stockhausen" INDEX 01 57:14:07 TRACK 80 AUDIO TITLE "Act 2 Invasion-Explosion with Farewell - Synthi-Fou" PERFORMER "Karlheinz Stockhausen" INDEX 01 57:48:27 TRACK 81 AUDIO TITLE "Act 2 Invasion-Explosion with Farewell - Synthi-Fou 11" PERFORMER "Karlheinz Stockhausen" INDEX 01 58:05:55 TRACK 82 AUDIO TITLE "Act 2 Invasion-Explosion with Farewell - Synthi-Fou 16" PERFORMER "Karlheinz Stockhausen" INDEX 01 58:22:30 TRACK 83 AUDIO TITLE "Act 2 Invasion-Explosion with Farewell - Synthi-Fou 22" PERFORMER "Karlheinz Stockhausen" INDEX 01 58:50:10 TRACK 84 AUDIO TITLE "Act 2 Invasion-Explosion with Farewell - Synthi-Fou 29" PERFORMER "Karlheinz Stockhausen" INDEX 01 59:35:00 TRACK 85 AUDIO TITLE "Act 2 Invasion-Explosion with Farewell - Synthi-Fou 36" PERFORMER "Karlheinz Stockhausen" INDEX 01 60:27:55 TRACK 86 AUDIO TITLE "Act 2 Invasion-Explosion with Farewell - Synthi-Fou 37" PERFORMER "Karlheinz Stockhausen" INDEX 01 60:55:37 TRACK 87 AUDIO TITLE "Act 2 Invasion-Explosion with Farewell - Synthi-Fou 45" PERFORMER "Karlheinz Stockhausen" INDEX 01 62:15:67 TRACK 88 AUDIO TITLE "Act 2 Invasion-Explosion with Farewell - Synthi-Fou (end)" PERFORMER "Karlheinz Stockhausen" INDEX 01 62:59:10 TRACK 89 AUDIO TITLE "Act 2 Invasion-Explosion with Farewell - Farewell" PERFORMER "Karlheinz Stockhausen" INDEX 01 63:16:47 TRACK 90 AUDIO TITLE "Act 2 Invasion-Explosion with Farewell - Farewell 11" PERFORMER "Karlheinz Stockhausen" INDEX 01 63:27:22 TRACK 91 AUDIO TITLE "Act 2 Invasion-Explosion with Farewell - Farewell 16" PERFORMER "Karlheinz Stockhausen" INDEX 01 63:42:70 TRACK 92 AUDIO TITLE "Act 2 Invasion-Explosion with Farewell - Farewell 22" PERFORMER "Karlheinz Stockhausen" INDEX 01 64:09:07 TRACK 93 AUDIO TITLE "Act 2 Invasion-Explosion with Farewell - Farewell 29" PERFORMER "Karlheinz Stockhausen" INDEX 01 64:50:32 TRACK 94 AUDIO TITLE "Act 2 Invasion-Explosion with Farewell - Farewell 39" PERFORMER "Karlheinz Stockhausen" INDEX 01 65:38:00 TRACK 95 AUDIO TITLE "Act 2 Invasion-Explosion with Farewell - Farewell 42" PERFORMER "Karlheinz Stockhausen" INDEX 01 66:13:67 TRACK 96 AUDIO TITLE "Act 2 Invasion-Explosion with Farewell - Farewell 51" PERFORMER "Karlheinz Stockhausen" INDEX 01 66:59:20 TRACK 97 AUDIO TITLE "Act 2 Invasion-Explosion with Farewell - Farewell 55" PERFORMER "Karlheinz Stockhausen" INDEX 01 67:39:70 TRACK 98 AUDIO TITLE "Act 2 Invasion-Explosion with Farewell - Farewell 58" PERFORMER "Karlheinz Stockhausen" INDEX 01 68:19:45 TRACK 99 AUDIO TITLE "Act 2 Invasion-Explosion with Farewell - Farewell 63 (end)" PERFORMER "Karlheinz Stockhausen" INDEX 01 68:37:42

Исполнители

TUESDAY GREETING:
EVA [Eve]: Annette Meriweather [soprano]
MICHAEL choir & LUCIFER choir: Choir of the Musical Comedy, Leipzig Vocal Ensemble, Andreas Korn [conductor], Jörg Krüger [co-conductor]
MICHAEL orchestra: Markus Stockhausen, Andreas Adam, Achim Gorsch, Christian Batzdorf, Alexander Bernhard, Marco Blaauw, Berno Lilge, Torsten Rösch, Ralph Schäfer [trumpets] – Massimiliano Viel [synthesizer]
LUCIFER orchestra: Michael Svoboda, Felix Schöpe, Steffen Schwarz, Stefan Ziegler, Timo Bäuerle, Marton Palk, Iven Hausman, Hans-Martin Schlegel, Joachim Gelsdorf [trombones] – Simon Stockhausen [synthesizer]_______________Act I; COURSE OF THE YEARS:
MICHAEL: Julian Pike [tenor]
LUCIFER: Nicholas Isherwood [bass] (the bass also sings the part of the referee)
Millennium Musicians: Simon Stockhausen, Andreas Adam, Michael Svoboda [synthesizers / samplers (instead of harmoniums)]
Century Musicians: Renee Jonker [anvil] – Kathinka Pasveer, Camilla Hoitenga, Janna Hüneke [piccolo flutes]
Decade Musicians: Achim Gorsch [bongo] – Hugo Read, Wolfgang Schmidtke, Ian Stuart [soprano saxophones]
Year Musicians: Andreas Boettger [bass drum] – Theodor Ross [guitar] – Massimiliano Viel [synthesizer / sampler (instead of harpsichord)]
Angelic girl: Bearnadette Read [female speaker on tape]
Sound scenes: Karlheinz Stockhausen [realization & man’s voice]_______________Act II; INVASION – EXPLOSION with FAREWELL:
MICHAEL troop: Julian Pike [tenor] – Markus Stockhausen [trumpet, solo flugelhorn in PIETÀ] – Andreas Adam, Achim Gorsch [trumpets] (the three trumpeters also played the parts of the tutti trumpeters 4 – 9 in the recording on Stockhausen Edition Volume 40, CD 2) – Massimiliano Viel [synthesizer] – Andreas Boettger [percussion]
LUCIFER troop: Nicholas Isherwood [bass] – Michael Svoboda, Timo Bäuerle, Iven Hausman [trombones (these three trombonists also played the parts of the tutti trombonists 4 – 9 in the recording on Stockhausen Edition Volume 40]) – Simon Stockhausen [synthesizer] – Renee Jonker [percussion]
EVA (in PIETÀ): Annette Meriweather [soprano]
SYNTHI-FOU: Simon Stockhausen [synthesizer]
THOSE IN THE BEYOND: WDR Choir, Karlheinz Stockhausen [conductor]



Показать сообщения:    

Текущее время: 10-Дек 02:10

Часовой пояс: UTC + 3


Вы не можете начинать темы
Вы не можете отвечать на сообщения
Вы не можете редактировать свои сообщения
Вы не можете удалять свои сообщения
Вы не можете голосовать в опросах
Вы не можете прикреплять файлы к сообщениям
Вы не можете скачивать файлы