(Score) Свидетель / Witness (by Maurice Jarre) - 1990 (1985), FLAC (tracks+.cue), lossless


Статистика раздачи [Обновить пиров]
Размер:  149 MB   |    Зарегистрирован:  11 месяцев 8 дней   |    Скачан:  2 раза

Полного источника не было: 2 дня 17 часов

 
   
 
 
 

[Цитировать]

Свидетель / Witness-Жанр: Score
Композитор: Maurice Jarre
Год выпуска диска: 1990
Год выпуска фильма: 1985
Производитель диска: Germany
Издатель (лейбл): Varèse Sarabande
Номер по каталогу: VSD-47227-Аудиокодек: FLAC (*.flac)
Тип рипа: tracks+.cue
Битрейт аудио: lossless
Продолжительность: 00:30:04
Источник: what.cd / Theophagus
Наличие сканов в содержимом раздачи: да

Треклист

1. Witness (main title) / Journey To Baltimore (06:24)
2. The Murder (01:22)
3. Book's Dissapearance (03:29)
4. Futility Of An Inside Job / Delirious John (03:08)
5. Building The Barn (04:58)
6. Book's Sorrow (02:45)
7. Rachel And Book (love theme) / Beginning Of The End (04:40)
8. The Amish Are Coming (03:21)

Лог создания рипа

Exact Audio Copy V0.99 prebeta 5 from 4. May 2009
EAC extraction logfile from 4. December 2010, 13:21
Maurice Jarre / Witness
Used drive : PLEXTOR CD-R PREMIUM2 Adapter: 1 ID: 0
Read mode : SecureUtilize accurate stream : YesDefeat audio cache : YesMake use of C2 pointers : No
Read offset correction : 30Overread into Lead-In and Lead-Out : YesFill up missing offset samples with silence : YesDelete leading and trailing silent blocks : NoNull samples used in CRC calculations : YesUsed interface : Installed external ASPI interfaceGap handling : Appended to previous track
Used output format : Internal WAV RoutinesSample format : 44.100 Hz; 16 Bit; Stereo
TOC of the extracted CD
Track | Start | Length | Start sector | End sector --------------------------------------------------------- 1 | 0:00.00 | 6:23.25 | 0 | 28749 2 | 6:23.25 | 1:23.00 | 28750 | 34974 3 | 7:46.25 | 3:28.00 | 34975 | 50574 4 | 11:14.25 | 3:08.00 | 50575 | 64674 5 | 14:22.25 | 4:58.00 | 64675 | 87024 6 | 19:20.25 | 2:46.00 | 87025 | 99474 7 | 22:06.25 | 4:39.00 | 99475 | 120399 8 | 26:45.25 | 3:19.00 | 120400 | 135324
Track 1
Filename C:\supang\Soundtrack\Maurice Jarre -1985- Witness {Varese Sarabande VSD-47227}\01. Witness (Main Title) ~ Journey to Baltimore.wav
Pre-gap length 0:00:02.00
Peak level 89.7 % Track quality 100.0 % Test CRC D4E75B2C Copy CRC D4E75B2C Accurately ripped (confidence 10) [F7D30B46] Copy OK
Track 2
Filename C:\supang\Soundtrack\Maurice Jarre -1985- Witness {Varese Sarabande VSD-47227}\02. The Murder.wav
Peak level 84.1 % Track quality 99.8 % Test CRC 08B90C5B Copy CRC 08B90C5B Accurately ripped (confidence 10) [805093C3] Copy OK
Track 3
Filename C:\supang\Soundtrack\Maurice Jarre -1985- Witness {Varese Sarabande VSD-47227}\03. Book's Disappearance.wav
Peak level 65.4 % Track quality 100.0 % Test CRC E4C76452 Copy CRC E4C76452 Accurately ripped (confidence 10) [DAA82DD8] Copy OK
Track 4
Filename C:\supang\Soundtrack\Maurice Jarre -1985- Witness {Varese Sarabande VSD-47227}\04. Futility of an Inside Job ~ Delirious John.wav
Peak level 60.8 % Track quality 100.0 % Test CRC 4C27C3C7 Copy CRC 4C27C3C7 Accurately ripped (confidence 9) [4CBD91FD] Copy OK
Track 5
Filename C:\supang\Soundtrack\Maurice Jarre -1985- Witness {Varese Sarabande VSD-47227}\05. Building the Barn.wav
Peak level 88.2 % Track quality 100.0 % Test CRC 67DC913D Copy CRC 67DC913D Accurately ripped (confidence 10) [3E66CBCE] Copy OK
Track 6
Filename C:\supang\Soundtrack\Maurice Jarre -1985- Witness {Varese Sarabande VSD-47227}\06. Book's Sorrow.wav
Peak level 77.3 % Track quality 100.0 % Test CRC 1C947A38 Copy CRC 1C947A38 Accurately ripped (confidence 9) [74BCB449] Copy OK
Track 7
Filename C:\supang\Soundtrack\Maurice Jarre -1985- Witness {Varese Sarabande VSD-47227}\07. Rachel and Book (Love Theme) ~ Beginning of the End.wav
Peak level 93.0 % Track quality 100.0 % Test CRC 012CFB24 Copy CRC 012CFB24 Accurately ripped (confidence 9) [13FD5EE5] Copy OK
Track 8
Filename C:\supang\Soundtrack\Maurice Jarre -1985- Witness {Varese Sarabande VSD-47227}\08. The Amish Are Coming.wav
Peak level 66.9 % Track quality 100.0 % Test CRC 5CDD0C4F Copy CRC 5CDD0C4F Accurately ripped (confidence 9) [C1739D4E] Copy OK
All tracks accurately ripped
No errors occurred
End of status report

Содержание индексной карты (.CUE)

REM GENRE SoundtrackREM DATE "1985 (1990)"REM DISCID 6F070C08REM COMMENT "Varese Sarabande VSD-47227"PERFORMER "Maurice Jarre"TITLE "Witness"FILE "01. Witness (Main Title) - Journey to Baltimore.wav" WAVE TRACK 01 AUDIO TITLE "Witness (Main Title) / Journey to Baltimore" PERFORMER "Maurice Jarre" INDEX 01 00:00:00FILE "02. The Murder.wav" WAVE TRACK 02 AUDIO TITLE "The Murder" PERFORMER "Maurice Jarre" INDEX 01 00:00:00FILE "03. Book's Disappearance.wav" WAVE TRACK 03 AUDIO TITLE "Book's Disappearance" PERFORMER "Maurice Jarre" INDEX 01 00:00:00FILE "04. Futility of an Inside Job - Delirious John.wav" WAVE TRACK 04 AUDIO TITLE "Futility of an Inside Job / Delirious John" PERFORMER "Maurice Jarre" INDEX 01 00:00:00FILE "05. Building the Barn.wav" WAVE TRACK 05 AUDIO TITLE "Building the Barn" PERFORMER "Maurice Jarre" INDEX 01 00:00:00FILE "06. Book's Sorrow.wav" WAVE TRACK 06 AUDIO TITLE "Book's Sorrow" PERFORMER "Maurice Jarre" INDEX 01 00:00:00FILE "07. Rachel and Book (Love Theme) - Beginning of the End.wav" WAVE TRACK 07 AUDIO TITLE "Rachel and Book (Love Theme) / Beginning of the End" PERFORMER "Maurice Jarre" INDEX 01 00:00:00FILE "08. The Amish Are Coming.wav" WAVE TRACK 08 AUDIO TITLE "The Amish Are Coming" PERFORMER "Maurice Jarre" INDEX 01 00:00:00
[teatrix.ru].t12453.torrent 
Торрент: Зарегистрирован [ 2015-12-31 07:10 ] · 62CC8BB32523D802609C6217938A6D820716FD60

Скачать .torrent

Скачать

13 KB

Статус: проверено
Скачан: 2 раз
Размер: 149 MB
terms.php



Быстрый ответ

Имя:

      
Для отправки сообщений необходимо включить JavaScript
Показать сообщения:    

Текущее время: 08-Дек 10:51

Часовой пояс: UTC + 3


Вы можете начинать темы
Вы можете отвечать на сообщения
Вы не можете редактировать свои сообщения
Вы не можете удалять свои сообщения
Вы не можете голосовать в опросах
Вы не можете прикреплять файлы к сообщениям
Вы можете скачивать файлы