(Score / Soundtrack) Омерзительная восьмерка / The Hateful Eight (by Ennio Morricone & VA) - 2015, FLAC (tracks+.cue), lossless


Статистика раздачи [Обновить пиров]
Размер:  331 MB   |    Зарегистрирован:  11 месяцев 3 дня   |    Скачан:  0 раз
Сидов:  31  [  0 KB/s  ]   Личеров:  1  [  0 KB/s  ]   Подробная статистика пиров
 
   
 
 

[Цитировать]

Омерзительная восьмерка / The Hateful Eight-Жанр: Score / Soundtrack
Композитор: Ennio Morricone
Год выпуска диска: 2015
Производитель диска: USA
Издатель (лейбл): Decca Records
Номер по каталогу: 4769489-Аудиокодек: FLAC (*.flac)
Тип рипа: tracks+.cue
Битрейт аудио: lossless
Продолжительность: 01:02:47
Источник: what.cd / BlownMind
Наличие сканов в содержимом раздачи: нет

Треклист

01. L'Ultima Diligenza di Red Rock (Versione Integrale) (07:30)
02. Overture (03:11)
03. "Major Warren Meet Daisy Domergue" (00:32)
Jennifer Jason Leigh, Kurt Russell and Samuel L. Jackson (dialogue)
04. Narratore Letterario (01:59)
05. Apple Blossom (02:13)
Performed by The White Stripes; Written by Jack White
06. "Frontier Justice" (01:50)
Tim Roth & Kurt Russell (dialogue)
07. L'Ultima Diligenza di Red Rock (#2) (02:37)
08. Neve (Versione Integrale) (12:16)
09. "This Here Is Daisy Domergue" (01:01)
Kurt Russell & Michael Madsen (dialogue)
(01:21)
11. Raggi di Sole Sulla Montagna (01:41)
12. "Son Of The Bloody Nigger Killer Of Baton Rouge" (02:43)
Samuel L. Jackson, Walton Goggins & Bruce Dern (dialogue)
13. "Jim Jones at Botany Bay" (04:10)
Jennifer Jason Leigh (dialogue) feat. Kurt Russell
14. Neve (#2) (02:05)
15. "Uncle Charlie's Stew" (01:41)
Samuel L. Jackson, Demián Bichir and Walton Goggins (dialogue)
16. I Quattro Passeggeri (01:49)
17. La Musica Prima del Massacro (02:00)
18. L'Inferno Bianco (Synth) (03:31)
19. The Suggestive Oswaldo Mobray (00:47)
Tim Roth, Walton Goggins & Kurt Russell (dialogue)
20. Now You're All Alone (01:29)
Written and Performed by David Hess
21. Sangue e Neve (02:05)
22. L'Inferno Bianco (Ottoni) (02:02)
23. Neve (#3) (03:31)
24. Daisy's Speech (01:32)
Walton Goggins, Jennifer Jason Leigh & Michael Madsen (dialogue)
25. La Lettera Di Lincoln (Strumentale) (01:41)
26. La Lettera Di Lincoln (Con Dialogo) (01:46)
Ennio Morricone & Walton Goggins
27. There Won't Be Many Coming Home (02:44)
Performed by Roy Orbison; Written by Orbison and Bill Dees
28. La Puntura Della Morte (00:27)

Лог создания рипа

X Lossless Decoder version 20151214 (149.1)
XLD extraction logfile from 2015-12-28 09:48:26 +0100
Various Artists / Quentin Tarantino's The Hateful Eight
Used drive : HL-DT-ST BDDVDRW CP40NG10 (revision 1.00)Media type : Pressed CD
Ripper mode : XLD Secure RipperDisable audio cache : OK for the drive with a cache less than 1375KiBMake use of C2 pointers : NORead offset correction : 102Max retry count : 20Gap status : Analyzed, Appended (except HTOA)
TOC of the extracted CD Track | Start | Length | Start sector | End sector --------------------------------------------------------- 1 | 00:00:00 | 07:32:36 | 0 | 33935 2 | 07:32:36 | 03:11:14 | 33936 | 48274 3 | 10:43:50 | 00:32:73 | 48275 | 50747 4 | 11:16:48 | 02:01:56 | 50748 | 59878 5 | 13:18:29 | 02:15:11 | 59879 | 70014 6 | 15:33:40 | 01:51:10 | 70015 | 78349 7 | 17:24:50 | 02:37:43 | 78350 | 90167 8 | 20:02:18 | 12:16:72 | 90168 | 145439 9 | 32:19:15 | 01:02:14 | 145440 | 150103 10 | 33:21:29 | 01:22:21 | 150104 | 156274 11 | 34:43:50 | 01:42:20 | 156275 | 163944 12 | 36:25:70 | 02:44:18 | 163945 | 176262 13 | 39:10:13 | 04:11:13 | 176263 | 195100 14 | 43:21:26 | 02:06:09 | 195101 | 204559 15 | 45:27:35 | 01:42:04 | 204560 | 212213 16 | 47:09:39 | 01:49:65 | 212214 | 220453 17 | 48:59:29 | 02:01:35 | 220454 | 229563 18 | 51:00:64 | 03:31:64 | 229564 | 245452 19 | 54:32:53 | 00:48:02 | 245453 | 249054 20 | 55:20:55 | 01:30:65 | 249055 | 255869 21 | 56:51:45 | 02:05:58 | 255870 | 265302 22 | 58:57:28 | 03:32:57 | 265303 | 281259 23 | 62:30:10 | 02:03:27 | 281260 | 290511 24 | 64:33:37 | 01:32:64 | 290512 | 297475 25 | 66:06:26 | 01:42:25 | 297476 | 305150 26 | 67:48:51 | 01:47:16 | 305151 | 313191 27 | 69:35:67 | 02:45:27 | 313192 | 325593 28 | 72:21:19 | 00:27:54 | 325594 | 327672
AccurateRip Summary Disc not found in AccurateRip DB.
All Tracks Album gain : -4.09 dB Peak : 0.994873 Statistics Read error : 0 Jitter error (maybe fixed) : 0 Retry sector count : 0 Damaged sector count : 0
Track 01 Filename : /Users/Toby/Music/XLD/01 Ennio Morricone - L'Ultima Diligenza Di Red Rock.flac Pre-gap length : 00:02:00
Track gain : -7.79 dB Peak : 0.987030 CRC32 hash (test run) : 9E63CF74 CRC32 hash : 9E63CF74 CRC32 hash (skip zero) : 87E8E6FB AccurateRip v1 signature : 1B921313 AccurateRip v2 signature : 84EAB585 ->Track not present in AccurateRip database. Statistics Read error : 0 Jitter error (maybe fixed) : 0 Retry sector count : 0 Damaged sector count : 0
Track 02 Filename : /Users/Toby/Music/XLD/02 Ennio Morricone - Overture.flac Pre-gap length : 00:01:49
Track gain : -2.18 dB Peak : 0.955444 CRC32 hash (test run) : 8BE91A39 CRC32 hash : 8BE91A39 CRC32 hash (skip zero) : 203C70D6 AccurateRip v1 signature : 7A4DADE2 AccurateRip v2 signature : 096C0A25 ->Track not present in AccurateRip database. Statistics Read error : 0 Jitter error (maybe fixed) : 0 Retry sector count : 0 Damaged sector count : 0
Track 03 Filename : /Users/Toby/Music/XLD/03 Jennifer Jason Leigh, Kurt Russell, Samuel L. Jackson - "Major Warren Meet Daisy Domergue".flac
Track gain : 5.74 dB Peak : 0.366852 CRC32 hash (test run) : 75CE28ED CRC32 hash : 75CE28ED CRC32 hash (skip zero) : A5DA53D0 AccurateRip v1 signature : 3C30CFFB AccurateRip v2 signature : DFE61A7F ->Track not present in AccurateRip database. Statistics Read error : 0 Jitter error (maybe fixed) : 0 Retry sector count : 0 Damaged sector count : 0
Track 04 Filename : /Users/Toby/Music/XLD/04 Ennio Morricone - Narratore Letterario.flac
Track gain : -3.81 dB Peak : 0.959076 CRC32 hash (test run) : F9E80341 CRC32 hash : F9E80341 CRC32 hash (skip zero) : 304859EE AccurateRip v1 signature : F5B0C6DE AccurateRip v2 signature : 1F03BFE1 ->Track not present in AccurateRip database. Statistics Read error : 0 Jitter error (maybe fixed) : 0 Retry sector count : 0 Damaged sector count : 0
Track 05 Filename : /Users/Toby/Music/XLD/05 The White Stripes - Apple Blossom.flac Pre-gap length : 00:02:44
Track gain : -4.69 dB Peak : 0.576965 CRC32 hash (test run) : F6E57499 CRC32 hash : F6E57499 CRC32 hash (skip zero) : 054E603F AccurateRip v1 signature : CD9DF4D4 AccurateRip v2 signature : 151BCB78 ->Track not present in AccurateRip database. Statistics Read error : 0 Jitter error (maybe fixed) : 0 Retry sector count : 0 Damaged sector count : 0
Track 06 Filename : /Users/Toby/Music/XLD/06 Tim Roth & Kurt Russell - "Frontier Justice".flac Pre-gap length : 00:01:74
Track gain : 6.23 dB Peak : 0.426666 CRC32 hash (test run) : A3D63823 CRC32 hash : A3D63823 CRC32 hash (skip zero) : 5AA534C2 AccurateRip v1 signature : 11D3CF18 AccurateRip v2 signature : 11851A5D ->Track not present in AccurateRip database. Statistics Read error : 0 Jitter error (maybe fixed) : 0 Retry sector count : 0 Damaged sector count : 0
Track 07 Filename : /Users/Toby/Music/XLD/07 Ennio Morricone - L'Ultima Diligenza Di Red Rock.flac Pre-gap length : 00:00:59
Track gain : -6.43 dB Peak : 0.993225 CRC32 hash (test run) : 144A5408 CRC32 hash : 144A5408 CRC32 hash (skip zero) : E76559AC AccurateRip v1 signature : 1634E683 AccurateRip v2 signature : 6F29A337 ->Track not present in AccurateRip database. Statistics Read error : 0 Jitter error (maybe fixed) : 0 Retry sector count : 0 Damaged sector count : 0
Track 08 Filename : /Users/Toby/Music/XLD/08 Ennio Morricone - Neve.flac Pre-gap length : 00:00:24
Track gain : -1.86 dB Peak : 0.959717 CRC32 hash (test run) : EC8C9C22 CRC32 hash : EC8C9C22 CRC32 hash (skip zero) : CFC9D8DB AccurateRip v1 signature : 8C680004 AccurateRip v2 signature : B12E1F29 ->Track not present in AccurateRip database. Statistics Read error : 0 Jitter error (maybe fixed) : 0 Retry sector count : 0 Damaged sector count : 0
Track 09 Filename : /Users/Toby/Music/XLD/09 Kurt Russell & Michael Madsen - "This Here Is Daisy Domergue".flac Pre-gap length : 00:00:09
Track gain : 4.34 dB Peak : 0.437592 CRC32 hash (test run) : 63093558 CRC32 hash : 63093558 CRC32 hash (skip zero) : 9457889F AccurateRip v1 signature : A9F18EF0 AccurateRip v2 signature : A5C40459 ->Track not present in AccurateRip database. Statistics Read error : 0 Jitter error (maybe fixed) : 0 Retry sector count : 0 Damaged sector count : 0
Track 10 Filename : /Users/Toby/Music/XLD/10 Ennio Morricone - Sei Cavalli.flac Pre-gap length : 00:00:51
Track gain : -6.36 dB Peak : 0.994873 CRC32 hash (test run) : 366D7665 CRC32 hash : 366D7665 CRC32 hash (skip zero) : 69460112 AccurateRip v1 signature : 701C9AA0 AccurateRip v2 signature : 09C4EC31 ->Track not present in AccurateRip database. Statistics Read error : 0 Jitter error (maybe fixed) : 0 Retry sector count : 0 Damaged sector count : 0
Track 11 Filename : /Users/Toby/Music/XLD/11 Ennio Morricone - Raggi Di Sole Sulla Montagna.flac Pre-gap length : 00:00:23
Track gain : -1.28 dB Peak : 0.743927 CRC32 hash (test run) : 62C5944D CRC32 hash : 62C5944D CRC32 hash (skip zero) : E6CB8EC3 AccurateRip v1 signature : 91013A2A AccurateRip v2 signature : 545A83FA ->Track not present in AccurateRip database. Statistics Read error : 0 Jitter error (maybe fixed) : 0 Retry sector count : 0 Damaged sector count : 0
Track 12 Filename : /Users/Toby/Music/XLD/12 Samuel L. Jackson, Walton Goggins, Bruce Dern - "Son Of The Bloody Nigger Killer Of Baton Rouge".flac Pre-gap length : 00:00:42
Track gain : 1.62 dB Peak : 0.801849 CRC32 hash (test run) : C69F1B91 CRC32 hash : C69F1B91 CRC32 hash (skip zero) : A012BFD8 AccurateRip v1 signature : 275D3AB9 AccurateRip v2 signature : BBC0406B ->Track not present in AccurateRip database. Statistics Read error : 0 Jitter error (maybe fixed) : 0 Retry sector count : 0 Damaged sector count : 0
Track 13 Filename : /Users/Toby/Music/XLD/13 Jennifer Jason Leigh - Jim Jones At Botany Bay.flac Pre-gap length : 00:01:10
Track gain : 1.32 dB Peak : 0.972046 CRC32 hash (test run) : 69147DA9 CRC32 hash : 69147DA9 CRC32 hash (skip zero) : AB996293 AccurateRip v1 signature : A0281FE0 AccurateRip v2 signature : 064E9882 ->Track not present in AccurateRip database. Statistics Read error : 0 Jitter error (maybe fixed) : 0 Retry sector count : 0 Damaged sector count : 0
Track 14 Filename : /Users/Toby/Music/XLD/14 Ennio Morricone - Neve.flac Pre-gap length : 00:00:25
Track gain : 1.74 dB Peak : 0.875885 CRC32 hash (test run) : FEBC7A9D CRC32 hash : FEBC7A9D CRC32 hash (skip zero) : 1764418A AccurateRip v1 signature : F2F44565 AccurateRip v2 signature : 4FC7A265 ->Track not present in AccurateRip database. Statistics Read error : 0 Jitter error (maybe fixed) : 0 Retry sector count : 0 Damaged sector count : 0
Track 15 Filename : /Users/Toby/Music/XLD/15 Samuel L. Jackson, Demián Bichir, Walton Goggins - "Uncle Charlie's Stew".flac Pre-gap length : 00:00:36
Track gain : 4.54 dB Peak : 0.425018 CRC32 hash (test run) : 399022F3 CRC32 hash : 399022F3 CRC32 hash (skip zero) : 07860293 AccurateRip v1 signature : 9D2E9EC9 AccurateRip v2 signature : 0DCEC7D0 ->Track not present in AccurateRip database. Statistics Read error : 0 Jitter error (maybe fixed) : 0 Retry sector count : 0 Damaged sector count : 0
Track 16 Filename : /Users/Toby/Music/XLD/16 Ennio Morricone - I Quattro Passeggeri.flac Pre-gap length : 00:00:22
Track gain : 6.56 dB Peak : 0.684998 CRC32 hash (test run) : 22DC1814 CRC32 hash : 22DC1814 CRC32 hash (skip zero) : F9781710 AccurateRip v1 signature : A63C1948 AccurateRip v2 signature : 7C860778 ->Track not present in AccurateRip database. Statistics Read error : 0 Jitter error (maybe fixed) : 0 Retry sector count : 0 Damaged sector count : 0
Track 17 Filename : /Users/Toby/Music/XLD/17 Ennio Morricone - La Musica Prima Del Massacro.flac Pre-gap length : 00:00:39
Track gain : 4.56 dB Peak : 0.348206 CRC32 hash (test run) : 79BFBC69 CRC32 hash : 79BFBC69 CRC32 hash (skip zero) : 5051DF5D AccurateRip v1 signature : 38CBEDC3 AccurateRip v2 signature : 909D41F7 ->Track not present in AccurateRip database. Statistics Read error : 0 Jitter error (maybe fixed) : 0 Retry sector count : 0 Damaged sector count : 0
Track 18 Filename : /Users/Toby/Music/XLD/18 Ennio Morricone - L'Inferno Bianco.flac Pre-gap length : 00:00:38
Track gain : -2.13 dB Peak : 0.959778 CRC32 hash (test run) : 0B47D903 CRC32 hash : 0B47D903 CRC32 hash (skip zero) : 552AF317 AccurateRip v1 signature : 56347FB7 AccurateRip v2 signature : 1900ECF4 ->Track not present in AccurateRip database. Statistics Read error : 0 Jitter error (maybe fixed) : 0 Retry sector count : 0 Damaged sector count : 0
Track 19 Filename : /Users/Toby/Music/XLD/19 Tim Roth, Walton Goggins, Kurt Russell - The Suggestive Oswaldo Mobray.flac Pre-gap length : 00:00:02
Track gain : 5.28 dB Peak : 0.500885 CRC32 hash (test run) : AB07D2EE CRC32 hash : AB07D2EE CRC32 hash (skip zero) : C40EB560 AccurateRip v1 signature : 5D8BFEB8 AccurateRip v2 signature : 9B2B767C ->Track not present in AccurateRip database. Statistics Read error : 0 Jitter error (maybe fixed) : 0 Retry sector count : 0 Damaged sector count : 0
Track 20 Filename : /Users/Toby/Music/XLD/20 David Hess - Now You're All Alone.flac Pre-gap length : 00:00:70
Track gain : 0.86 dB Peak : 0.987762 CRC32 hash (test run) : 60538DC5 CRC32 hash : 60538DC5 CRC32 hash (skip zero) : 2C40F766 AccurateRip v1 signature : 76D1F566 AccurateRip v2 signature : 1F52A3E7 ->Track not present in AccurateRip database. Statistics Read error : 0 Jitter error (maybe fixed) : 0 Retry sector count : 0 Damaged sector count : 0
Track 21 Filename : /Users/Toby/Music/XLD/21 Ennio Morricone - Sangue E Neve.flac Pre-gap length : 00:01:23
Track gain : -3.29 dB Peak : 0.980927 CRC32 hash (test run) : 1468D0E7 CRC32 hash : 1468D0E7 CRC32 hash (skip zero) : 55F52D62 AccurateRip v1 signature : 9B219F36 AccurateRip v2 signature : 55A4D7FC ->Track not present in AccurateRip database. Statistics Read error : 0 Jitter error (maybe fixed) : 0 Retry sector count : 0 Damaged sector count : 0
Track 22 Filename : /Users/Toby/Music/XLD/22 Ennio Morricone - L'Inferno Bianco.flac Pre-gap length : 00:00:54
Track gain : -2.47 dB Peak : 0.957916 CRC32 hash (test run) : E9EC18C3 CRC32 hash : E9EC18C3 CRC32 hash (skip zero) : 0FB7DE33 AccurateRip v1 signature : 24CE7F73 AccurateRip v2 signature : 89A9789C ->Track not present in AccurateRip database. Statistics Read error : 0 Jitter error (maybe fixed) : 0 Retry sector count : 0 Damaged sector count : 0
Track 23 Filename : /Users/Toby/Music/XLD/23 Ennio Morricone - Neve.flac Pre-gap length : 00:01:13
Track gain : -1.05 dB Peak : 0.640472 CRC32 hash (test run) : 569EAB02 CRC32 hash : 569EAB02 CRC32 hash (skip zero) : 4575DD56 AccurateRip v1 signature : BB93A808 AccurateRip v2 signature : 9CB90CAE ->Track not present in AccurateRip database. Statistics Read error : 0 Jitter error (maybe fixed) : 0 Retry sector count : 0 Damaged sector count : 0
Track 24 Filename : /Users/Toby/Music/XLD/24 Walton Goggins, Jennifer Jason Leigh, Michael Madsen - Daisy's Speech.flac Pre-gap length : 00:00:34
Track gain : 0.59 dB Peak : 0.687073 CRC32 hash (test run) : 424EDE5A CRC32 hash : 424EDE5A CRC32 hash (skip zero) : 7D4B44EF AccurateRip v1 signature : 280B9743 AccurateRip v2 signature : 952D95B3 ->Track not present in AccurateRip database. Statistics Read error : 0 Jitter error (maybe fixed) : 0 Retry sector count : 0 Damaged sector count : 0
Track 25 Filename : /Users/Toby/Music/XLD/25 Ennio Morricone - La Lettera Di Lincoln.flac Pre-gap length : 00:00:42
Track gain : -2.35 dB Peak : 0.794403 CRC32 hash (test run) : 816FC084 CRC32 hash : 816FC084 CRC32 hash (skip zero) : C28F56E8 AccurateRip v1 signature : 2535B8B3 AccurateRip v2 signature : B0529B4C ->Track not present in AccurateRip database. Statistics Read error : 0 Jitter error (maybe fixed) : 0 Retry sector count : 0 Damaged sector count : 0
Track 26 Filename : /Users/Toby/Music/XLD/26 Ennio Morricone & Walter Goggins - La Lettera Di Lincoln.flac Pre-gap length : 00:00:32
Track gain : 4.14 dB Peak : 0.658447 CRC32 hash (test run) : D3817274 CRC32 hash : D3817274 CRC32 hash (skip zero) : 47C630E2 AccurateRip v1 signature : E1479C58 AccurateRip v2 signature : FA3FE6C1 ->Track not present in AccurateRip database. Statistics Read error : 0 Jitter error (maybe fixed) : 0 Retry sector count : 0 Damaged sector count : 0
Track 27 Filename : /Users/Toby/Music/XLD/27 Roy Orbison - There Won't Be Many Coming Home.flac Pre-gap length : 00:00:32
Track gain : -3.62 dB Peak : 0.946411 CRC32 hash (test run) : 228DD860 CRC32 hash : 228DD860 CRC32 hash (skip zero) : 99604C19 AccurateRip v1 signature : 16852EAA AccurateRip v2 signature : 1A917936 ->Track not present in AccurateRip database. Statistics Read error : 0 Jitter error (maybe fixed) : 0 Retry sector count : 0 Damaged sector count : 0
Track 28 Filename : /Users/Toby/Music/XLD/28 Ennio Morricone - La Puntura Della Morte.flac Pre-gap length : 00:00:28
Track gain : -6.02 dB Peak : 0.957550 CRC32 hash (test run) : 03BB7B2F CRC32 hash : 03BB7B2F CRC32 hash (skip zero) : 8E3C11C1 AccurateRip v1 signature : 6939616B AccurateRip v2 signature : 01810C95 ->Track not present in AccurateRip database. Statistics Read error : 0 Jitter error (maybe fixed) : 0 Retry sector count : 0 Damaged sector count : 0
No errors occurred
End of status report
-----BEGIN XLD SIGNATURE-----EpSuMdggvR3ctm7k67SIHEbNGCHMASQ4_vITErwJz6.RltUcOcR3uupMGxtplErDhLQeeCGK..T8VaZrtroOeeiZxPgvYGbXF86TZK4-----END XLD SIGNATURE-----

Содержание индексной карты (.CUE)

TITLE "Quentin Tarantino's The Hateful Eight"CATALOG 0602547694898REM GENRE "Soundtrack"REM DATE "2015"REM DISCNUMBER 1REM TOTALDISCS 1REM DISCID 8F11101CREM REPLAYGAIN_ALBUM_GAIN -4.09 dBREM REPLAYGAIN_ALBUM_PEAK 0.994873REM COMPILATION TRUEFILE "01 Ennio Morricone - L'Ultima Diligenza Di Red Rock.flac" WAVE TRACK 01 AUDIO TITLE "L'Ultima Diligenza Di Red Rock" PERFORMER "Ennio Morricone" SONGWRITER "Ennio Morricone" ISRC GBUM71507239 REM REPLAYGAIN_TRACK_GAIN -7.79 dB REM REPLAYGAIN_TRACK_PEAK 0.987030 INDEX 01 00:00:00 TRACK 02 AUDIO TITLE "Overture" PERFORMER "Ennio Morricone" SONGWRITER "Ennio Morricone" ISRC GBUM71507249 REM REPLAYGAIN_TRACK_GAIN -2.18 dB REM REPLAYGAIN_TRACK_PEAK 0.955444 INDEX 00 07:30:62FILE "02 Ennio Morricone - Overture.flac" WAVE INDEX 01 00:00:00FILE "03 Jennifer Jason Leigh, Kurt Russell, Samuel L. Jackson - "Major Warren Meet Daisy Domergue".flac" WAVE TRACK 03 AUDIO TITLE ""Major Warren Meet Daisy Domergue"" PERFORMER "Jennifer Jason Leigh, Kurt Russell, Samuel L. Jackson" ISRC GBUM71507272 REM REPLAYGAIN_TRACK_GAIN 5.74 dB REM REPLAYGAIN_TRACK_PEAK 0.366852 INDEX 01 00:00:00FILE "04 Ennio Morricone - Narratore Letterario.flac" WAVE TRACK 04 AUDIO TITLE "Narratore Letterario" PERFORMER "Ennio Morricone" SONGWRITER "Ennio Morricone" ISRC GBUM71507247 REM REPLAYGAIN_TRACK_GAIN -3.81 dB REM REPLAYGAIN_TRACK_PEAK 0.959076 INDEX 01 00:00:00 TRACK 05 AUDIO TITLE "Apple Blossom" PERFORMER "The White Stripes" ISRC USVT10200070 REM REPLAYGAIN_TRACK_GAIN -4.69 dB REM REPLAYGAIN_TRACK_PEAK 0.576965 INDEX 00 01:59:12FILE "05 The White Stripes - Apple Blossom.flac" WAVE INDEX 01 00:00:00 TRACK 06 AUDIO TITLE ""Frontier Justice"" PERFORMER "Tim Roth & Kurt Russell" ISRC GBUM71507273 REM REPLAYGAIN_TRACK_GAIN 6.23 dB REM REPLAYGAIN_TRACK_PEAK 0.426666 INDEX 00 02:13:12FILE "06 Tim Roth & Kurt Russell - "Frontier Justice".flac" WAVE INDEX 01 00:00:00 TRACK 07 AUDIO TITLE "L'Ultima Diligenza Di Red Rock" PERFORMER "Ennio Morricone" SONGWRITER "Ennio Morricone" ISRC GBUM71507267 REM REPLAYGAIN_TRACK_GAIN -6.43 dB REM REPLAYGAIN_TRACK_PEAK 0.993225 INDEX 00 01:50:26FILE "07 Ennio Morricone - L'Ultima Diligenza Di Red Rock.flac" WAVE INDEX 01 00:00:00 TRACK 08 AUDIO TITLE "Neve" PERFORMER "Ennio Morricone" SONGWRITER "Ennio Morricone" ISRC GBUM71507248 REM REPLAYGAIN_TRACK_GAIN -1.86 dB REM REPLAYGAIN_TRACK_PEAK 0.959717 INDEX 00 02:37:19FILE "08 Ennio Morricone - Neve.flac" WAVE INDEX 01 00:00:00 TRACK 09 AUDIO TITLE ""This Here Is Daisy Domergue"" PERFORMER "Kurt Russell & Michael Madsen" ISRC GBUM71507274 REM REPLAYGAIN_TRACK_GAIN 4.34 dB REM REPLAYGAIN_TRACK_PEAK 0.437592 INDEX 00 12:16:63FILE "09 Kurt Russell & Michael Madsen - "This Here Is Daisy Domergue".flac" WAVE INDEX 01 00:00:00 TRACK 10 AUDIO TITLE "Sei Cavalli" PERFORMER "Ennio Morricone" SONGWRITER "Ennio Morricone" ISRC GBUM71507251 REM REPLAYGAIN_TRACK_GAIN -6.36 dB REM REPLAYGAIN_TRACK_PEAK 0.994873 INDEX 00 01:01:38FILE "10 Ennio Morricone - Sei Cavalli.flac" WAVE INDEX 01 00:00:00 TRACK 11 AUDIO TITLE "Raggi Di Sole Sulla Montagna" PERFORMER "Ennio Morricone" SONGWRITER "Ennio Morricone" ISRC GBUM71507250 REM REPLAYGAIN_TRACK_GAIN -1.28 dB REM REPLAYGAIN_TRACK_PEAK 0.743927 INDEX 00 01:21:73FILE "11 Ennio Morricone - Raggi Di Sole Sulla Montagna.flac" WAVE INDEX 01 00:00:00 TRACK 12 AUDIO TITLE ""Son Of The Bloody Nigger Killer Of Baton Rouge"" PERFORMER "Samuel L. Jackson, Walton Goggins, Bruce Dern" ISRC GBUM71507275 REM REPLAYGAIN_TRACK_GAIN 1.62 dB REM REPLAYGAIN_TRACK_PEAK 0.801849 INDEX 00 01:41:53FILE "12 Samuel L. Jackson, Walton Goggins, Bruce Dern - "Son Of The Bloody Nigger Killer Of Baton Rouge".flac" WAVE INDEX 01 00:00:00 TRACK 13 AUDIO TITLE "Jim Jones At Botany Bay" PERFORMER "Jennifer Jason Leigh" ISRC GBUM71507254 REM REPLAYGAIN_TRACK_GAIN 1.32 dB REM REPLAYGAIN_TRACK_PEAK 0.972046 INDEX 00 02:43:08FILE "13 Jennifer Jason Leigh - Jim Jones At Botany Bay.flac" WAVE INDEX 01 00:00:00 TRACK 14 AUDIO TITLE "Neve" PERFORMER "Ennio Morricone" SONGWRITER "Ennio Morricone" ISRC GBUM71507268 REM REPLAYGAIN_TRACK_GAIN 1.74 dB REM REPLAYGAIN_TRACK_PEAK 0.875885 INDEX 00 04:10:63FILE "14 Ennio Morricone - Neve.flac" WAVE INDEX 01 00:00:00 TRACK 15 AUDIO TITLE ""Uncle Charlie's Stew"" PERFORMER "Samuel L. Jackson, Demián Bichir, Walton Goggins" ISRC GBUM71507276 REM REPLAYGAIN_TRACK_GAIN 4.54 dB REM REPLAYGAIN_TRACK_PEAK 0.425018 INDEX 00 02:05:48FILE "15 Samuel L. Jackson, Demián Bichir, Walton Goggins - "Uncle Charlie's Stew".flac" WAVE INDEX 01 00:00:00 TRACK 16 AUDIO TITLE "I Quattro Passeggeri" PERFORMER "Ennio Morricone" SONGWRITER "Ennio Morricone" ISRC GBUM71507243 REM REPLAYGAIN_TRACK_GAIN 6.56 dB REM REPLAYGAIN_TRACK_PEAK 0.684998 INDEX 00 01:41:57FILE "16 Ennio Morricone - I Quattro Passeggeri.flac" WAVE INDEX 01 00:00:00 TRACK 17 AUDIO TITLE "La Musica Prima Del Massacro" PERFORMER "Ennio Morricone" SONGWRITER "Ennio Morricone" ISRC GBUM71507245 REM REPLAYGAIN_TRACK_GAIN 4.56 dB REM REPLAYGAIN_TRACK_PEAK 0.348206 INDEX 00 01:49:26FILE "17 Ennio Morricone - La Musica Prima Del Massacro.flac" WAVE INDEX 01 00:00:00 TRACK 18 AUDIO TITLE "L'Inferno Bianco" PERFORMER "Ennio Morricone" SONGWRITER "Ennio Morricone" ISRC GBUM71507242 REM REPLAYGAIN_TRACK_GAIN -2.13 dB REM REPLAYGAIN_TRACK_PEAK 0.959778 INDEX 00 02:00:72FILE "18 Ennio Morricone - L'Inferno Bianco.flac" WAVE INDEX 01 00:00:00 TRACK 19 AUDIO TITLE "The Suggestive Oswaldo Mobray" PERFORMER "Tim Roth, Walton Goggins, Kurt Russell" ISRC GBUM71507277 REM REPLAYGAIN_TRACK_GAIN 5.28 dB REM REPLAYGAIN_TRACK_PEAK 0.500885 INDEX 00 03:31:62FILE "19 Tim Roth, Walton Goggins, Kurt Russell - The Suggestive Oswaldo Mobray.flac" WAVE INDEX 01 00:00:00 TRACK 20 AUDIO TITLE "Now You're All Alone" PERFORMER "David Hess" ISRC GB2DY1500171 REM REPLAYGAIN_TRACK_GAIN 0.86 dB REM REPLAYGAIN_TRACK_PEAK 0.987762 INDEX 00 00:47:07FILE "20 David Hess - Now You're All Alone.flac" WAVE INDEX 01 00:00:00 TRACK 21 AUDIO TITLE "Sangue E Neve" PERFORMER "Ennio Morricone" SONGWRITER "Ennio Morricone" ISRC GBUM71507278 REM REPLAYGAIN_TRACK_GAIN -3.29 dB REM REPLAYGAIN_TRACK_PEAK 0.980927 INDEX 00 01:29:42FILE "21 Ennio Morricone - Sangue E Neve.flac" WAVE INDEX 01 00:00:00 TRACK 22 AUDIO TITLE "L'Inferno Bianco" PERFORMER "Ennio Morricone" SONGWRITER "Ennio Morricone" ISRC GBUM71507269 REM REPLAYGAIN_TRACK_GAIN -2.47 dB REM REPLAYGAIN_TRACK_PEAK 0.957916 INDEX 00 02:05:04FILE "22 Ennio Morricone - L'Inferno Bianco.flac" WAVE INDEX 01 00:00:00 TRACK 23 AUDIO TITLE "Neve" PERFORMER "Ennio Morricone" SONGWRITER "Ennio Morricone" ISRC GBUM71507270 REM REPLAYGAIN_TRACK_GAIN -1.05 dB REM REPLAYGAIN_TRACK_PEAK 0.640472 INDEX 00 03:31:44FILE "23 Ennio Morricone - Neve.flac" WAVE INDEX 01 00:00:00 TRACK 24 AUDIO TITLE "Daisy's Speech" PERFORMER "Walton Goggins, Jennifer Jason Leigh, Michael Madsen" ISRC GBUM71507279 REM REPLAYGAIN_TRACK_GAIN 0.59 dB REM REPLAYGAIN_TRACK_PEAK 0.687073 INDEX 00 02:02:68FILE "24 Walton Goggins, Jennifer Jason Leigh, Michael Madsen - Daisy's Speech.flac" WAVE INDEX 01 00:00:00 TRACK 25 AUDIO TITLE "La Lettera Di Lincoln" PERFORMER "Ennio Morricone" SONGWRITER "Ennio Morricone" ISRC GBUM71507244 REM REPLAYGAIN_TRACK_GAIN -2.35 dB REM REPLAYGAIN_TRACK_PEAK 0.794403 INDEX 00 01:32:22FILE "25 Ennio Morricone - La Lettera Di Lincoln.flac" WAVE INDEX 01 00:00:00 TRACK 26 AUDIO TITLE "La Lettera Di Lincoln" PERFORMER "Ennio Morricone & Walter Goggins" SONGWRITER "Ennio Morricone" ISRC GBUM71507271 REM REPLAYGAIN_TRACK_GAIN 4.14 dB REM REPLAYGAIN_TRACK_PEAK 0.658447 INDEX 00 01:41:68FILE "26 Ennio Morricone & Walter Goggins - La Lettera Di Lincoln.flac" WAVE INDEX 01 00:00:00 TRACK 27 AUDIO TITLE "There Won't Be Many Coming Home" PERFORMER "Roy Orbison" SONGWRITER "Bill Dees" ISRC USNLR1500886 REM REPLAYGAIN_TRACK_GAIN -3.62 dB REM REPLAYGAIN_TRACK_PEAK 0.946411 INDEX 00 01:46:59FILE "27 Roy Orbison - There Won't Be Many Coming Home.flac" WAVE INDEX 01 00:00:00 TRACK 28 AUDIO TITLE "La Puntura Della Morte" PERFORMER "Ennio Morricone" SONGWRITER "Ennio Morricone" ISRC GBUM71507246 REM REPLAYGAIN_TRACK_GAIN -6.02 dB REM REPLAYGAIN_TRACK_PEAK 0.957550 INDEX 00 02:44:74FILE "28 Ennio Morricone - La Puntura Della Morte.flac" WAVE INDEX 01 00:00:00
[teatrix.ru].t12454.torrent 
Торрент: Зарегистрирован [ 2015-12-31 07:10 ] · 1F8BE1CA2968220DBA9E018BBD9F4A61B2C879A8

Скачать .torrent

Скачать

16 KB

Статус: проверено
Скачан: 0 раз
Размер: 331 MB
terms.php



Быстрый ответ

Имя:

      
Для отправки сообщений необходимо включить JavaScript
Показать сообщения:    

Текущее время: 03-Дек 07:39

Часовой пояс: UTC + 3


Вы можете начинать темы
Вы можете отвечать на сообщения
Вы не можете редактировать свои сообщения
Вы не можете удалять свои сообщения
Вы не можете голосовать в опросах
Вы не можете прикреплять файлы к сообщениям
Вы можете скачивать файлы