(Score) Защитник / Concussion (by James Newton Howard) - 2015, FLAC (tracks+.cue), lossless


Статистика раздачи [Обновить пиров]
Размер:  366 MB   |    Зарегистрирован:  11 месяцев 8 дней   |    Скачан:  2 раза

Полного источника не было: 1 месяц 23 дня

 
   
 
 
 

[Цитировать]

Защитник / Concussion-Жанр: Score
Композитор: James Newton Howard
Год выпуска диска: 2015
Производитель диска: Sony DADC, Austria
Издатель (лейбл): Sony Classical
Номер по каталогу: 88875173802-Аудиокодек: FLAC (*.flac)
Тип рипа: tracks+.cue
Битрейт аудио: lossless
Продолжительность: 01:05:52
Источник: собственный рип
Наличие сканов в содержимом раздачи: да, 600 dpi-Ссылки: Кинопоиск | IMDB | Wikipedia | SoundtrackCollector

Треклист

01. Concussion [0:03:21.42]
02. Dr. Bennet Testifies [0:02:26.50]
03. Strzelczyk Visits Webster [0:01:38.64]
04. Webster's Autopsy [0:02:32.58]
05. Jacked Up [0:04:21.27]
06. The Head as a Weapon [0:02:23.56]
07. Bennet and Prema [0:02:37.35]
08. Strzelczyk Loses It [0:02:00.20]
09. Published - Marry Me [0:08:50.59]
10. We Used to Be Warriors [0:04:29.74]
11. Tell the Truth [0:04:08.49]
12. I am Offended [0:03:39.32]
13. Shakespeare [0:01:32.52]
14. News Conference [0:01:46.46]
15. Hello Little One [0:01:53.68]
16. Prema Followed [0:03:16.71]
17. Be at Peace [0:03:49.59]
18. Bennet's Decision [0:04:07.18]
19. Concussion End Titles [0:03:00.50]
20. Lisbeth Scott / In The Darkness [0:03:51.20]

Лог создания рипа

Exact Audio Copy V1.1 from 23. June 2015
EAC extraction logfile from 30. December 2015, 12:36
James Newton Howard / Concussion
Used drive : PLEXTOR CD-R PX-230A Adapter: 1 ID: 2
Read mode : SecureUtilize accurate stream : YesDefeat audio cache : YesMake use of C2 pointers : No
Read offset correction : 738Overread into Lead-In and Lead-Out : NoFill up missing offset samples with silence : YesDelete leading and trailing silent blocks : NoNull samples used in CRC calculations : YesUsed interface : Native Win32 interface for Win NT & 2000Gap handling : Appended to previous track
Used output format : User Defined EncoderSelected bitrate : 1024 kBit/sQuality : HighAdd ID3 tag : NoCommand line compressor : C:\Program Files (x86)\Exact Audio Copy\FLAC\FLAC.EXEAdditional command line options : -6 -V -T "ARTIST=%artist%" -T "TITLE=%title%" -T "ALBUM=%albumtitle%" -T "DATE=%year%"-T "TRACKNUMBER=%tracknr%" -T "GENRE=%genre%" -T "COMMENT=%comment%" -T "ALBUMARTIST=%albuminterpret%" -T "COMPOSER=%composer%"-T "DISCNUMBER=%cdnumber%" -T "TOTALDISCS=%totalcds%" -T "TOTALTRACKS=%numtracks%" %source% -o %dest%
TOC of the extracted CD
Track | Start | Length | Start sector | End sector --------------------------------------------------------- 1 | 0:00.00 | 3:21.42 | 0 | 15116 2 | 3:21.42 | 2:26.50 | 15117 | 26116 3 | 5:48.17 | 1:38.64 | 26117 | 33530 4 | 7:27.06 | 2:32.58 | 33531 | 44988 5 | 9:59.64 | 4:21.27 | 44989 | 64590 6 | 14:21.16 | 2:23.56 | 64591 | 75371 7 | 16:44.72 | 2:37.35 | 75372 | 87181 8 | 19:22.32 | 2:00.20 | 87182 | 96201 9 | 21:22.52 | 8:50.59 | 96202 | 136010 10 | 30:13.36 | 4:29.74 | 136011 | 156259 11 | 34:43.35 | 4:08.49 | 156260 | 174908 12 | 38:52.09 | 3:39.32 | 174909 | 191365 13 | 42:31.41 | 1:32.52 | 191366 | 198317 14 | 44:04.18 | 1:46.46 | 198318 | 206313 15 | 45:50.64 | 1:53.68 | 206314 | 214856 16 | 47:44.57 | 3:16.71 | 214857 | 229627 17 | 51:01.53 | 3:49.59 | 229628 | 246861 18 | 54:51.37 | 4:07.18 | 246862 | 265404 19 | 58:58.55 | 3:00.50 | 265405 | 278954 20 | 61:59.30 | 3:51.20 | 278955 | 296299
Track 1
Filename C:\Music\01 - James Newton Howard - Concussion.wav
Pre-gap length 0:00:02.00
Peak level 95.8 % Extraction speed 6.9 X Track quality 100.0 % Test CRC B3062D12 Copy CRC B3062D12 Track not present in AccurateRip database Copy OK
Track 2
Filename C:\Music\02 - James Newton Howard - Dr. Bennet Testifies.wav
Pre-gap length 0:00:02.40
Peak level 92.8 % Extraction speed 7.2 X Track quality 100.0 % Test CRC AC5E8B13 Copy CRC AC5E8B13 Track not present in AccurateRip database Copy OK
Track 3
Filename C:\Music\03 - James Newton Howard - Strzelczyk Visits Webster.wav
Pre-gap length 0:00:01.74
Peak level 97.6 % Extraction speed 6.9 X Track quality 100.0 % Test CRC DDCBB785 Copy CRC DDCBB785 Track not present in AccurateRip database Copy OK
Track 4
Filename C:\Music\04 - James Newton Howard - Webster's Autopsy.wav
Pre-gap length 0:00:01.37
Peak level 71.5 % Extraction speed 7.7 X Track quality 100.0 % Test CRC 1941E9DB Copy CRC 1941E9DB Track not present in AccurateRip database Copy OK
Track 5
Filename C:\Music\05 - James Newton Howard - Jacked Up.wav
Pre-gap length 0:00:01.20
Peak level 95.5 % Extraction speed 8.8 X Track quality 100.0 % Test CRC C8C1FB37 Copy CRC C8C1FB37 Track not present in AccurateRip database Copy OK
Track 6
Filename C:\Music\06 - James Newton Howard - The Head as a Weapon.wav
Pre-gap length 0:00:01.56
Peak level 43.6 % Extraction speed 6.7 X Track quality 99.9 % Test CRC 76B65CA6 Copy CRC 76B65CA6 Track not present in AccurateRip database Copy OK
Track 7
Filename C:\Music\07 - James Newton Howard - Bennet and Prema.wav
Pre-gap length 0:00:00.28
Peak level 58.0 % Extraction speed 8.5 X Track quality 100.0 % Test CRC 2C5113B5 Copy CRC 2C5113B5 Track not present in AccurateRip database Copy OK
Track 8
Filename C:\Music\08 - James Newton Howard - Strzelczyk Loses It.wav
Peak level 94.5 % Extraction speed 8.0 X Track quality 100.0 % Test CRC 16088EDA Copy CRC 16088EDA Track not present in AccurateRip database Copy OK
Track 9
Filename C:\Music\09 - James Newton Howard - Published - Marry Me.wav
Pre-gap length 0:00:00.44
Peak level 94.4 % Extraction speed 10.1 X Track quality 100.0 % Test CRC 8C519DCD Copy CRC 8C519DCD Track not present in AccurateRip database Copy OK
Track 10
Filename C:\Music\10 - James Newton Howard - We Used to Be Warriors.wav
Pre-gap length 0:00:00.74
Peak level 87.0 % Extraction speed 10.7 X Track quality 100.0 % Test CRC 76A8AFFE Copy CRC 76A8AFFE Track not present in AccurateRip database Copy OK
Track 11
Filename C:\Music\11 - James Newton Howard - Tell the Truth.wav
Pre-gap length 0:00:00.35
Peak level 94.4 % Extraction speed 8.5 X Track quality 99.9 % Test CRC 6C44EE28 Copy CRC 6C44EE28 Track not present in AccurateRip database Copy OK
Track 12
Filename C:\Music\12 - James Newton Howard - I am Offended.wav
Pre-gap length 0:00:02.02
Peak level 26.0 % Extraction speed 8.3 X Track quality 99.9 % Test CRC 04B7E96F Copy CRC 04B7E96F Track not present in AccurateRip database Copy OK
Track 13
Filename C:\Music\13 - James Newton Howard - Shakespeare.wav
Pre-gap length 0:00:00.49
Peak level 82.8 % Extraction speed 8.5 X Track quality 100.0 % Test CRC 0A25F28E Copy CRC 0A25F28E Track not present in AccurateRip database Copy OK
Track 14
Filename C:\Music\14 - James Newton Howard - News Conference.wav
Pre-gap length 0:00:01.12
Peak level 94.7 % Extraction speed 8.7 X Track quality 100.0 % Test CRC CB44F148 Copy CRC CB44F148 Track not present in AccurateRip database Copy OK
Track 15
Filename C:\Music\15 - James Newton Howard - Hello Little One.wav
Pre-gap length 0:00:01.12
Peak level 39.3 % Extraction speed 9.0 X Track quality 100.0 % Test CRC 107DF4B5 Copy CRC 107DF4B5 Track not present in AccurateRip database Copy OK
Track 16
Filename C:\Music\16 - James Newton Howard - Prema Followed.wav
Pre-gap length 0:00:01.50
Peak level 91.5 % Extraction speed 10.0 X Track quality 100.0 % Test CRC 94807E75 Copy CRC 94807E75 Track not present in AccurateRip database Copy OK
Track 17
Filename C:\Music\17 - James Newton Howard - Be at Peace.wav
Pre-gap length 0:00:01.36
Peak level 79.2 % Extraction speed 10.3 X Track quality 100.0 % Test CRC 5E1A1B86 Copy CRC 5E1A1B86 Track not present in AccurateRip database Copy OK
Track 18
Filename C:\Music\18 - James Newton Howard - Bennet's Decision.wav
Pre-gap length 0:00:01.40
Peak level 94.6 % Extraction speed 10.7 X Track quality 100.0 % Test CRC 39A74550 Copy CRC 39A74550 Track not present in AccurateRip database Copy OK
Track 19
Filename C:\Music\19 - James Newton Howard - Concussion End Titles.wav
Pre-gap length 0:00:01.70
Peak level 94.4 % Extraction speed 10.6 X Track quality 100.0 % Test CRC 558769C2 Copy CRC 558769C2 Track not present in AccurateRip database Copy OK
Track 20
Filename C:\Music\20 - Lisbeth Scott - In The Darkness.wav
Pre-gap length 0:00:01.16
Peak level 93.3 % Extraction speed 10.9 X Track quality 100.0 % Test CRC FADF6112 Copy CRC FADF6112 Track not present in AccurateRip database Copy OK
None of the tracks are present in the AccurateRip database
No errors occurred
End of status report
---- CUETools DB Plugin V2.1.6
[CTDB TOCID: FF83mirNYWhPdIdxh9Kj.a7uQXQ-] disk not present in databaseSubmit result: FF83mirNYWhPdIdxh9Kj.a7uQXQ- has been uploaded
==== Log checksum D0B508E52FFBB92E5E9F985F01DA9230D6F97C4237DB66BD71A18B8CEB807E01 ====

Содержание индексной карты (.CUE)

REM GENRE SoundtrackREM DATE 2015REM DISCID 020F6E14REM COMMENT "ExactAudioCopy v1.1"PERFORMER "James Newton Howard"TITLE "Concussion"FILE "01 - James Newton Howard - Concussion.wav" WAVE TRACK 01 AUDIO TITLE "Concussion" PERFORMER "James Newton Howard" INDEX 01 00:00:00 TRACK 02 AUDIO TITLE "Dr. Bennet Testifies" PERFORMER "James Newton Howard" INDEX 00 03:19:02FILE "02 - James Newton Howard - Dr. Bennet Testifies.wav" WAVE INDEX 01 00:00:00 TRACK 03 AUDIO TITLE "Strzelczyk Visits Webster" PERFORMER "James Newton Howard" INDEX 00 02:24:51FILE "03 - James Newton Howard - Strzelczyk Visits Webster.wav" WAVE INDEX 01 00:00:00 TRACK 04 AUDIO TITLE "Webster's Autopsy" PERFORMER "James Newton Howard" INDEX 00 01:37:27FILE "04 - James Newton Howard - Webster's Autopsy.wav" WAVE INDEX 01 00:00:00 TRACK 05 AUDIO TITLE "Jacked Up" PERFORMER "James Newton Howard" INDEX 00 02:31:38FILE "05 - James Newton Howard - Jacked Up.wav" WAVE INDEX 01 00:00:00 TRACK 06 AUDIO TITLE "The Head as a Weapon" PERFORMER "James Newton Howard" INDEX 00 04:19:46FILE "06 - James Newton Howard - The Head as a Weapon.wav" WAVE INDEX 01 00:00:00 TRACK 07 AUDIO TITLE "Bennet and Prema" PERFORMER "James Newton Howard" INDEX 00 02:23:28FILE "07 - James Newton Howard - Bennet and Prema.wav" WAVE INDEX 01 00:00:00FILE "08 - James Newton Howard - Strzelczyk Loses It.wav" WAVE TRACK 08 AUDIO TITLE "Strzelczyk Loses It" PERFORMER "James Newton Howard" INDEX 01 00:00:00 TRACK 09 AUDIO TITLE "Published - Marry Me" PERFORMER "James Newton Howard" INDEX 00 01:59:51FILE "09 - James Newton Howard - Published - Marry Me.wav" WAVE INDEX 01 00:00:00 TRACK 10 AUDIO TITLE "We Used to Be Warriors" PERFORMER "James Newton Howard" INDEX 00 08:49:60FILE "10 - James Newton Howard - We Used to Be Warriors.wav" WAVE INDEX 01 00:00:00 TRACK 11 AUDIO TITLE "Tell the Truth" PERFORMER "James Newton Howard" INDEX 00 04:29:39FILE "11 - James Newton Howard - Tell the Truth.wav" WAVE INDEX 01 00:00:00 TRACK 12 AUDIO TITLE "I am Offended" PERFORMER "James Newton Howard" INDEX 00 04:06:47FILE "12 - James Newton Howard - I am Offended.wav" WAVE INDEX 01 00:00:00 TRACK 13 AUDIO TITLE "Shakespeare" PERFORMER "James Newton Howard" INDEX 00 03:38:58FILE "13 - James Newton Howard - Shakespeare.wav" WAVE INDEX 01 00:00:00 TRACK 14 AUDIO TITLE "News Conference" PERFORMER "James Newton Howard" INDEX 00 01:31:40FILE "14 - James Newton Howard - News Conference.wav" WAVE INDEX 01 00:00:00 TRACK 15 AUDIO TITLE "Hello Little One" PERFORMER "James Newton Howard" INDEX 00 01:45:34FILE "15 - James Newton Howard - Hello Little One.wav" WAVE INDEX 01 00:00:00 TRACK 16 AUDIO TITLE "Prema Followed" PERFORMER "James Newton Howard" INDEX 00 01:52:18FILE "16 - James Newton Howard - Prema Followed.wav" WAVE INDEX 01 00:00:00 TRACK 17 AUDIO TITLE "Be at Peace" PERFORMER "James Newton Howard" INDEX 00 03:15:35FILE "17 - James Newton Howard - Be at Peace.wav" WAVE INDEX 01 00:00:00 TRACK 18 AUDIO TITLE "Bennet's Decision" PERFORMER "James Newton Howard" INDEX 00 03:48:19FILE "18 - James Newton Howard - Bennet's Decision.wav" WAVE INDEX 01 00:00:00 TRACK 19 AUDIO TITLE "Concussion End Titles" PERFORMER "James Newton Howard" INDEX 00 04:05:23FILE "19 - James Newton Howard - Concussion End Titles.wav" WAVE INDEX 01 00:00:00 TRACK 20 AUDIO TITLE "In The Darkness" PERFORMER "Lisbeth Scott" INDEX 00 02:59:34FILE "20 - Lisbeth Scott - In The Darkness.wav" WAVE INDEX 01 00:00:00
[teatrix.ru].t12455.torrent 
Торрент: Зарегистрирован [ 2015-12-31 07:10 ] · E4925E399B5CFF04DA9F40C4B3ACAD3B17E7C1AE

Скачать .torrent

Скачать

31 KB

Статус: проверено
Скачан: 2 раз
Размер: 366 MB
terms.php



Быстрый ответ

Имя:

      
Для отправки сообщений необходимо включить JavaScript
Показать сообщения:    

Текущее время: 08-Дек 10:59

Часовой пояс: UTC + 3


Вы можете начинать темы
Вы можете отвечать на сообщения
Вы не можете редактировать свои сообщения
Вы не можете удалять свои сообщения
Вы не можете голосовать в опросах
Вы не можете прикреплять файлы к сообщениям
Вы можете скачивать файлы