(Classical) Ludwig van Beethoven — The Five Piano Concertos (Paul Badura-Skoda, Hermann Scherchen) — 2007, APE (image+.cue) lossless


Статистика раздачи [Обновить пиров]
Размер:  592 MB   |    Зарегистрирован:  11 месяцев 3 дня   |    Скачан:  0 раз

Полного источника не было: Никогда

 
   
 
 
 

[Цитировать]

The Five Piano Concertos-
Жанр: Classical
Страна-производитель комплекта: Германия
Год издания комплекта: 2007 (October 5)
Годы записи фонограмм: 1951-1958
Издатель (лейбл): Genuin Musikproduction
Номер по каталогу: GEN 87102
Композитор: Ludwig van Beethoven
Исполнители: Paul Badura-Skoda, piano; Hermann Scherchen, conductor
Аудио кодек: ape
Тип рипа: image+.cue
Битрейт аудио: lossless
Продолжительность: 02h47'51"
Источник: web
Наличие сканов в содержимом раздачи: да (.pdf)-

Треклист

CD 1 [01h00'39"]
(01-03) Piano Concerto № 1 C-Dur Op 15 [35'01"]
(04-06) Piano Concerto № 2 B-Dur Op 19 [25'38"]-Vienna State Opera Orchestra, cond. Hermann Scherchen, Piano – Paul Badura-Skoda
recorded and published 1952 (01-03) & 1953 (04-06), mono recording-

CUE

REM GENRE "Classical"
PERFORMER "Beethoven"
TITLE "Badura-Skoda CD1"
FILE "CD1.ape" WAVE
  TRACK 01 AUDIO
    TITLE "PC № 1 C-Dur Op 15 – I. Allegro con brio"
    PERFORMER "Beethoven"
    INDEX 01 00:00:00
  TRACK 02 AUDIO
    TITLE "PC № 1 C-Dur Op 15 – II. Largo"
    PERFORMER "Beethoven"
    INDEX 01 14:46:50
  TRACK 03 AUDIO
    TITLE "PC № 1 C-Dur Op 15 – III Rondo. Allegro scherzando"
    PERFORMER "Beethoven"
    INDEX 01 26:10:73
  TRACK 04 AUDIO
    TITLE "PC № 2 B-Dur Op 19 – I. Allegro con brio"
    PERFORMER "Beethoven"
    INDEX 01 35:00:48
  TRACK 05 AUDIO
    TITLE "PC № 2 B-Dur Op 19 – II. Adagio"
    PERFORMER "Beethoven"[*]
    INDEX 01 47:59:66
  TRACK 06 AUDIO
    TITLE "PC № 2 B-Dur Op 19 – III. Rondo. Molto allegro"
    PERFORMER "Beethoven"
    INDEX 01 54:58:21
-CD 2 [01h07'45"]
(01-03) Piano Concerto № 3 c-moll Op 37 [34'44"]
(04-06) Piano Concerto № 4 G-Dur Op 58 [33'01"]-Vienna State Opera Orchestra, cond. Hermann Scherchen, Piano – Paul Badura-Skoda
(01-03) recorded 1958, published 1959, stereo recording; (04-06) recorded & published 1951, mono recording-

CUE

REM GENRE "Classical"
PERFORMER "Beethoven"
TITLE "Badura-Skoda CD2"
FILE "CD2.ape" WAVE
  TRACK 01 AUDIO
    TITLE "PC № 3 c-moll Op 37 – I. Allegro con brio"
    PERFORMER "Beethoven"
    INDEX 01 00:00:00
  TRACK 02 AUDIO
    TITLE "PC № 3 c-moll Op 37 – II. Largo"
    PERFORMER "Beethoven"
    INDEX 01 15:58:32
  TRACK 03 AUDIO
    TITLE "PC № 3 c-moll Op 37 – III. Rondo. Allegro"
    PERFORMER "Beethoven"
    INDEX 01 25:37:25
  TRACK 04 AUDIO
    TITLE "PC № 4 G-Dur Op 58 – I. Allegro moderato"
    PERFORMER "Beethoven"
    INDEX 01 34:44:30
  TRACK 05 AUDIO
    TITLE "PC № 4 G-Dur Op 58 – II. Andante con moto"
    PERFORMER "Beethoven"
    INDEX 01 52:27:44
  TRACK 06 AUDIO
    TITLE "PC № 4 G-Dur Op 58 – III. Rondo. Vivace"
    PERFORMER "Beethoven"
    INDEX 01 57:31:51
-CD 3 [00h39'27"]
(01-03) Piano Concerto № 5 Es-Dur Op 73 «Emperor» [39'27"]-Vienna State Opera Orchestra, cond. Hermann Scherchen, Piano – Paul Badura-Skoda
recorded & published 1951, mono recording-

CUE

REM GENRE "Classical"
PERFORMER "Beethoven"
TITLE "Badura-Skoda CD3"
FILE "CD3.ape" WAVE
  TRACK 01 AUDIO
    TITLE "PC № 5 Es-Dur Op 73 «Emperor» – I. Allegro"
    PERFORMER "Beethoven"
    INDEX 01 00:00:00
  TRACK 02 AUDIO
    TITLE "PC № 5 Es-Dur Op 73 «Emperor» – II. Adagio un poco mosso"
    PERFORMER "Beethoven"
    INDEX 01 20:10:70
  TRACK 03 AUDIO
    TITLE "PC № 5 Es-Dur Op 73 «Emperor» – III. Rondo. Allegro ma non troppo"
    PERFORMER "Beethoven"
    INDEX 01 29:00:56

-

auCDtect log

-----------------------
DON'T MODIFY THIS FILE
-----------------------
PERFORMER: auCDtect Task Manager, ver. 1.5.1RC4 build 1.5.1.5
Copyright (c) 2008-2010 y-soft. All rights reserved
http://y-soft.org
ANALYZER: auCDtect: CD records authenticity detector, version 0.8.2
Copyright (c) 2004 Oleg Berngardt. All rights reserved.
Copyright (c) 2004 Alexander Djourik. All rights reserved.
FILE: CD3.wav
  Size: 417548252 Hash: D161FB78C9C861AFEBD838FE490ACF05 Accuracy: -m0
  Conclusion: CDDA 100%
  Signature: FD8BD6A0E232FA88F1B49872CE02EA8B2DE0EB73
FILE: CD2.wav
  Size: 717098972 Hash: 4E8C342D077A39D3252A1143AFDF88E4 Accuracy: -m0
  Conclusion: CDDA 100%
  Signature: D83CB37100EAFDA99EC6B1669DD4D792FBF7FA95
FILE: CD1.wav
  Size: 641933756 Hash: 4031AF950B8D81E10C9844FB001DCC3E Accuracy: -m0
  Conclusion: CDDA 100%
  Signature: C772D309CCEAAFE8C05CA57A95F73A750C6DE062

-

Spectrogram

-
[teatrix.ru].t12464.torrent 
Торрент: Зарегистрирован [ 2015-12-31 15:30 ] · B0ACE07B2BA476FB61A942D5D821EE2C4AC97B25

Скачать .torrent

Скачать

12 KB

Статус: проверено
Скачан: 0 раз
Размер: 592 MB
terms.php



Быстрый ответ

Имя:

      
Для отправки сообщений необходимо включить JavaScript
Показать сообщения:    

Текущее время: 04-Дек 02:54

Часовой пояс: UTC + 3


Вы можете начинать темы
Вы можете отвечать на сообщения
Вы не можете редактировать свои сообщения
Вы не можете удалять свои сообщения
Вы не можете голосовать в опросах
Вы не можете прикреплять файлы к сообщениям
Вы можете скачивать файлы