Невинные чародеи / Niewinni czarodzieje / Innocent Sorcerers (Анджей Вайда / Andrzej Wajda) [1960, Польша, драма, мелодрама, музыкальный, DVDRip] VO + Sub Rus, Eng + Original Pol


Статистика раздачи [Обновить пиров]
Размер:  1.46 GB   |    Зарегистрирован:  11 месяцев 7 дней   |    Скачан:  1 раз

Полного источника не было: 5 часов

 
   
 
 
 

[Цитировать]

Невинные чародеи / Niewinni czarodzieje / Innocent Sorcerers
Страна: Польша
Жанр: драма, мелодрама, музыкальный
Год выпуска: 1960
Продолжительность: 01:23:55
Перевод: Одноголосый закадровый
Cубтитры: русские, английские
Оригинальная аудиодорожка: польский

Режиссер: Анджей Вайда / Andrzej Wajda
В ролях: Тадеуш Ломницкий, Кристина Стипульковска, Ванда Коческа, Калина Едрусик, Тереза Шмигеловна, Збигнев Цыбульски, Роман Полански, Анджей Новаковски, Анджей Гавронски, Мариан Кочиняк, Кшиштоф Комеда, Ежи Сколимовский, Анджей Тжасковски, Ян Зилбер
Описание: Молодой доктор работает в боксёрском клубе, отдавая свободные вечера игре в джазовом оркестре. После выступления он вместе с другом идёт в кафе, где тот хочет познакомиться с понравившейся ему незнакомкой. Помогая приятелю, доктор первым знакомится с девушкой и приглашает её к себе домой. Там они представляются друг другу вымышленными именами Базиля и Пелагеи. По обоюдному договору, они намерены провести вечер по готовому сценарию: немного алкоголя, первый поцелуй, недолгая интеллектуальная беседа и общая постель. Начатая ими циничная игра постепенно переходит в искреннее романтичное чувство…
Качество видео: DVDRip
Формат видео: AVI
Видео: 640x480 (1.33:1), 25 fps, XviD build 73 ~2092 kbps avg, 0.27 bit/pixel
Аудио: 48 kHz, AC3 Dolby Digital, 2/0 (L,R) ch, ~192 kbps - одноголосый
Аудио: 48 kHz, AC3 Dolby Digital, 2/0 (L,R) ch, ~192 kbps - оригинал

MediaInfo

Общее
Полное имя : H:\Niewinni.czarodzieje.1960.dvdrip_[1.46]_[teko]\Niewinni.czarodzieje.1960.dvdrip_[1.46].avi
Формат : AVI
Формат/Информация : Audio Video Interleave
Размер файла : 1,46 Гбайт
Продолжительность : 1 ч. 23 м.
Общий поток : 2488 Кбит/сек
Программа кодирования : VirtualDubMod 1.5.10.3 | www.virtualdub-fr.org || (build 2550/release)
Библиотека кодирования : VirtualDubMod build 2550/release
Видео
Идентификатор : 0
Формат : MPEG-4 Visual
Профиль формата : Advanced Simple@L5
Параметр BVOP формата : 1
Параметр QPel формата : Нет
Параметр GMC формата : Без точки перехода
Параметр матрицы формата : Выборочная
Идентификатор кодека : XVID
Идентификатор кодека/Подсказка : XviD
Продолжительность : 1 ч. 23 м.
Битрейт : 2093 Кбит/сек
Ширина : 640 пикселей
Высота : 480 пикселей
Соотношение сторон : 4:3
Частота кадров : 25,000 кадров/сек
Цветовое пространство : YUV
Субдискретизация насыщенности : 4:2:0
Битовая глубина : 8 бит
Тип развёртки : Прогрессивная
Метод сжатия : С потерями
Бит/(Пиксели*Кадры) : 0.272
Размер потока : 1,23 Гбайт (84%)
Библиотека кодирования : XviD 73
Аудио #1
Идентификатор : 1
Формат : AC-3
Формат/Информация : Audio Coding 3
Расширение режима : CM (complete main)
Параметр Endianness формата : Big
Идентификатор кодека : 2000
Продолжительность : 1 ч. 23 м.
Вид битрейта : Постоянный
Битрейт : 192 Кбит/сек
Каналы : 2 канала
Расположение каналов : Front: L R
Частота : 48,0 КГц
Битовая глубина : 16 бит
Метод сжатия : С потерями
Размер потока : 114 Мбайт (8%)
Выравнивание : Разделение по промежуткам
Продолжительность промежутка : 40 мс. (1,01 видеокадр)
Время предзагрузки промежутка : 500 мс.
Аудио #2
Идентификатор : 2
Формат : AC-3
Формат/Информация : Audio Coding 3
Расширение режима : CM (complete main)
Параметр Endianness формата : Big
Идентификатор кодека : 2000
Продолжительность : 1 ч. 23 м.
Вид битрейта : Постоянный
Битрейт : 192 Кбит/сек
Каналы : 2 канала
Расположение каналов : Front: L R
Частота : 48,0 КГц
Битовая глубина : 16 бит
Метод сжатия : С потерями
Размер потока : 114 Мбайт (8%)
Выравнивание : Разделение по промежуткам
Продолжительность промежутка : 40 мс. (1,01 видеокадр)
Время предзагрузки промежутка : 500 мс.
[teatrix.ru].t12467.torrent 
Торрент: Зарегистрирован [ 2016-01-01 06:15 ] · 7396A125752C256D7401FC6FAD6F7A252D5DC65F

Скачать .torrent

Скачать

15 KB

Статус: проверено
Скачан: 1 раз
Размер: 1.46 GB
terms.php



Быстрый ответ

Имя:

      
Для отправки сообщений необходимо включить JavaScript
Показать сообщения:    

Текущее время: 08-Дек 09:06

Часовой пояс: UTC + 3


Вы можете начинать темы
Вы можете отвечать на сообщения
Вы не можете редактировать свои сообщения
Вы не можете удалять свои сообщения
Вы не можете голосовать в опросах
Вы не можете прикреплять файлы к сообщениям
Вы можете скачивать файлы