Свадьба / Wesele / The Wedding (Анджей Вайда / Andrzej Wajda) [1972, Польша, драма, DVDRip] MVO (СВ-Дубль) + Sub Rus, Eng + Original Pol


Статистика раздачи [Обновить пиров]
Размер:  1.46 GB   |    Зарегистрирован:  1 год   |    Скачан:  1 раз

Полного источника не было: 13 дней

Личеров:  2  [  0 KB/s  ]   Подробная статистика пиров
 
   
 
 
 

[Цитировать]

Свадьба / Wesele / The Wedding
Страна: Польша
Жанр: драма
Год выпуска: 1972
Продолжительность: 01:42:48
Перевод: Профессиональный (многоголосый закадровый) - фирма «СВ-Дубль» по заказу ГТРК «Культура»
Cубтитры: русские, английские
Оригинальная аудиодорожка: польский

Режиссер: Анджей Вайда / Andrzej Wajda
В ролях: Марек Вальчевский, Изабелла Ольшевска, Эва Зетэк, Даниэль Ольбрыхский, Эмилия Краковска, Мечислав Стоор, Казимеж Опалиньский, Хенрик Боровский, Марек Перепецко, Януш Буковски
Описание: Конец XIX века. Польша разделена между Австро-Венгрией, Германией и Россией. Фильм начинается со сцены отъезда свадебной кавалькады от Маряцкого костёла . Минуя окрестные сёла, свадьба добирается до дома Хозяина. Начинается пир в деревенском доме. Жених — выходец из интеллигентной семьи, невеста — крестьянская девушка. Гости — также представители разных социальных слоёв. Ночью в дом Хозяина приезжает Рахиль, еврейская девушка с чувствительной «поэтической» душой. Это она приглашает в дом Хохла, стоящего под окном. В весёлый свадебный гомон незаметно просачивается жуткая аура. Некоторые гости оказываются таинственными ведьмами. В тайниках душ возрождаются скрытые раны, комплексы, тоска. Самыми сильными из них являются мечты о возрождении независимости Отчизны…
Качество видео: DVDRip
Формат видео: AVI
Видео: 720x384 (1.88:1), 25 fps, XviD build 73 ~1701 kbps avg, 0.25 bit/pixel
Аудио: 48 kHz, AC3 Dolby Digital, 1/0 (C) ch, ~128 kbps - многоголосый
Аудио: 48 kHz, AC3 Dolby Digital, 2/0 (L,R) ch, ~192 kbps - оригинал

MediaInfo

Общее
Полное имя : H:\Wesele.1972.dvdrip_[1.46]_[teko]\Wesele.1972.dvdrip_[1.46].avi
Формат : AVI
Формат/Информация : Audio Video Interleave
Размер файла : 1,46 Гбайт
Продолжительность : 1 ч. 42 м.
Общий поток : 2034 Кбит/сек
Программа кодирования : VirtualDubMod 1.5.10.3 | www.virtualdub-fr.org || (build 2550/release)
Библиотека кодирования : VirtualDubMod build 2550/release
Видео
Идентификатор : 0
Формат : MPEG-4 Visual
Профиль формата : Advanced Simple@L5
Параметр BVOP формата : 1
Параметр QPel формата : Нет
Параметр GMC формата : Без точки перехода
Параметр матрицы формата : Выборочная
Идентификатор кодека : XVID
Идентификатор кодека/Подсказка : XviD
Продолжительность : 1 ч. 42 м.
Битрейт : 1702 Кбит/сек
Ширина : 720 пикселей
Высота : 384 пикселя
Соотношение сторон : 1,85:1
Частота кадров : 25,000 кадров/сек
Цветовое пространство : YUV
Субдискретизация насыщенности : 4:2:0
Битовая глубина : 8 бит
Тип развёртки : Прогрессивная
Метод сжатия : С потерями
Бит/(Пиксели*Кадры) : 0.246
Размер потока : 1,22 Гбайт (84%)
Библиотека кодирования : XviD 73
Аудио #1
Идентификатор : 1
Формат : AC-3
Формат/Информация : Audio Coding 3
Расширение режима : CM (complete main)
Параметр Endianness формата : Big
Идентификатор кодека : 2000
Продолжительность : 1 ч. 42 м.
Вид битрейта : Постоянный
Битрейт : 128 Кбит/сек
Каналы : 1 канал
Расположение каналов : Front: C
Частота : 48,0 КГц
Битовая глубина : 16 бит
Метод сжатия : С потерями
Размер потока : 93,4 Мбайт (6%)
Выравнивание : Разделение по промежуткам
Продолжительность промежутка : 40 мс. (1,01 видеокадр)
Время предзагрузки промежутка : 500 мс.
Аудио #2
Идентификатор : 2
Формат : AC-3
Формат/Информация : Audio Coding 3
Расширение режима : CM (complete main)
Параметр Endianness формата : Big
Идентификатор кодека : 2000
Продолжительность : 1 ч. 42 м.
Вид битрейта : Постоянный
Битрейт : 192 Кбит/сек
Каналы : 2 канала
Расположение каналов : Front: L R
Частота : 48,0 КГц
Битовая глубина : 16 бит
Метод сжатия : С потерями
Размер потока : 140 Мбайт (9%)
Выравнивание : Разделение по промежуткам
Продолжительность промежутка : 40 мс. (1,01 видеокадр)
Время предзагрузки промежутка : 500 мс.
[teatrix.ru].t12468.torrent 
Торрент: Зарегистрирован [ 2016-01-01 06:15 ] · 82428C28367BBED81668396075CDBA3C4143AD57

Скачать .torrent

Скачать

15 KB

Статус: проверено
Скачан: 1 раз
Размер: 1.46 GB
terms.php



Быстрый ответ

Имя:

      
Для отправки сообщений необходимо включить JavaScript
Показать сообщения:    

Текущее время: 19-Янв 22:17

Часовой пояс: UTC + 3


Вы можете начинать темы
Вы можете отвечать на сообщения
Вы не можете редактировать свои сообщения
Вы не можете удалять свои сообщения
Вы не можете голосовать в опросах
Вы не можете прикреплять файлы к сообщениям
Вы можете скачивать файлы