Сияние / The Shining (Стэнли Кубрик / Stanley Kubrick) [1980, Великобритания, драма, мистика, DVDRip] [Полная версия / Unrated US Cut] [FullScreen] VO + AVO (Володарский) + Sub Eng + Original Eng


Статистика раздачи [Обновить пиров]
Размер:  2.73 GB   |    Зарегистрирован:  11 месяцев 10 дней   |    Скачан:  0 раз

Полного источника не было: Никогда

Личеров:  6  [  0 KB/s  ]   Подробная статистика пиров
 
   
 
 
 

[Цитировать]

Сияющие / Сияние / The Shining
полная версия / Unrated US Cut / FullScreen [4X3]
Страна: Великобритания
Жанр: драма, мистика
Год выпуска: 1980
Продолжительность: 02:23:46
Перевод 1: Одноголосый закадровый (из середины 90х) на короткую версию
Перевод 2: Авторский (одноголосый закадровый) Леонида Володарского на полную версию
Cубтитры: английские + русские на пропуски перевода
Оригинальная аудиодорожка: английский
Режиссер: Стэнли Кубрик / Stanley Kubrick
В ролях: Джек Николсон /Jack Nicholson/, Шелли Дюволл /Shelley Duvall/, Дэнни Ллойд /Danny Lloyd/, Скэтман Крозерс /Scatman Crothers/, Энн Джексон /Anne Jackson/, Тони Бертон /Tony Burton/, Барри Нелсон /Barry Nelson/, Филип Стоун /Philip Stone/, Джо Теркел /Joe Turkel/
Композиторы: Кшиштоф Пендерецки /Krzysztof Penderecki/, Уэнди Карлос /Wendy Carlos/, Рэйчел Элкинд /Rachel Elkind/, Гиорги Лигети /Gyorgi Ligeti/, Бела Барток /Bela Bartok/,
Гектор Берлиоз /Hector Berlioz/: Symphonie Fantastique, Op. 14 - V. Songe d'une nuit du Sabbat, Dies Irae
Рецензия Михаила Иванова: Экранизация триллера Стивена Кинга. Писатель (Николсон) соглашается провести зиму вместе со своими женой и сыном в отдаленном и отрезанном от мира горном, курортном отеле в роли сторожа. С этим местом связана таинственная история. По мере развития сюжета мистика подтачивает разум писателя, и он сходит с ума. Глядеть на это жутко, особенно когда обезумевший литератор отбрасывает пишущую машинку и начинает бегать за родными с топором. Все сторожа до него убивали членов своей семьи и самих себя, а отель населен призраками. До сих пор картина остается самой мощной экранизацией романа, а игру Николсона можно назвать только выдающейся. Один из моих самых любимых фильмов. Особенно врезаются в память первые кадры зимней, горной дороги.
Качество видео: DVDRip >> Сэмпл
Формат видео: AVI
Видео: 640x480 (1.33:1), 23.976 fps, XviD MPEG-4 ~1880 kbps avg, 0.26 bit/pixel - исходник от camel
Аудио 1: 48 kHz, AC3 Dolby Digital, 2/0 (L,R) ch, ~224 kbps - неизвестный, оцифрован мной с личной кассеты
Аудио 2: 48 kHz, AC3 Dolby Digital, 2/0 (L,R) ch, ~224 kbps - Володарский из коллекции яверь
Аудио 3: 48 kHz, AC3 Dolby Digital, 3/2 (L,C,R,l,r) + LFE ch, ~384 kbps - english
Формат субтитров: softsub (SRT)

MediaInfo

Формат : AVI
Формат/Информация : Audio Video Interleave
Профиль формата : OpenDML
Размер файла : 2,73 Гбайт
Продолжительность : 2 ч. 23 м.
Общий поток : 2720 Кбит/сек
Название фильма : The Shining (1980)
Программа кодирования : VirtualDubMod 1.5.10.3 | www.virtualdub-fr.org || (build 2550/release)
Библиотека кодирования : VirtualDubMod build 2550/release
Правообладатель : karlll
Видео
Идентификатор : 0
Формат : MPEG-4 Visual
Профиль формата : Advanced Simple@L5
Параметр BVOP формата : 2
Параметр QPel формата : Нет
Параметр GMC формата : Без точки перехода
Параметр матрицы формата : Default (MPEG)
Идентификатор кодека : XVID
Идентификатор кодека/Подсказка : XviD
Продолжительность : 2 ч. 23 м.
Битрейт : 1866 Кбит/сек
Ширина : 640 пикселей
Высота : 480 пикселей
Соотношение сторон : 4:3
Частота кадров : 23,976 кадра/сек
Цветовое пространство : YUV
Субдискретизация насыщенности : 4:2:0
Битовая глубина : 8 бит
Тип развёртки : Прогрессивная
Метод сжатия : С потерями
Бит/(Пиксели*Кадры) : 0.253
Размер потока : 1,87 Гбайт (69%)
Библиотека кодирования : XviD 1.2.1 (UTC 2008-12-04)
Аудио #1
Идентификатор : 1
Формат : AC-3
Формат/Информация : Audio Coding 3
Расширение режима : CM (complete main)
Параметр Endianness формата : Big
Идентификатор кодека : 2000
Продолжительность : 2 ч. 23 м.
Вид битрейта : Постоянный
Битрейт : 224 Кбит/сек
Каналы : 2 канала
Расположение каналов : Front: L R
Частота : 48,0 КГц
Битовая глубина : 16 бит
Метод сжатия : С потерями
Размер потока : 230 Мбайт (8%)
Выравнивание : Разделение по промежуткам
Продолжительность промежутка : 42 мс. (1,00 видеокадр)
Время предзагрузки промежутка : 500 мс.
Заголовок : Neizvestniy
Аудио #2
Идентификатор : 2
Формат : AC-3
Формат/Информация : Audio Coding 3
Расширение режима : CM (complete main)
Параметр Endianness формата : Big
Идентификатор кодека : 2000
Продолжительность : 2 ч. 23 м.
Вид битрейта : Постоянный
Битрейт : 224 Кбит/сек
Каналы : 2 канала
Расположение каналов : Front: L R
Частота : 48,0 КГц
Битовая глубина : 16 бит
Метод сжатия : С потерями
Размер потока : 230 Мбайт (8%)
Выравнивание : Разделение по промежуткам
Продолжительность промежутка : 42 мс. (1,00 видеокадр)
Время предзагрузки промежутка : 500 мс.
Заголовок : Volodarskiy
Аудио #3
Идентификатор : 3
Формат : AC-3
Формат/Информация : Audio Coding 3
Расширение режима : CM (complete main)
Параметр Endianness формата : Big
Идентификатор кодека : 2000
Продолжительность : 2 ч. 23 м.
Вид битрейта : Постоянный
Битрейт : 384 Кбит/сек
Каналы : 6 каналов
Расположение каналов : Front: L C R, Side: L R, LFE
Частота : 48,0 КГц
Битовая глубина : 16 бит
Метод сжатия : С потерями
Задержка видео : 66 мс.
Размер потока : 395 Мбайт (14%)
Выравнивание : Разделение по промежуткам
Продолжительность промежутка : 42 мс. (1,00 видеокадр)
Время предзагрузки промежутка : 500 мс.
Заголовок : english

Скриншоты

[teatrix.ru].t12469.torrent 
Торрент: Зарегистрирован [ 2016-01-01 06:15 ] · 34B9C560FB386B8A3718C2F2907CADE8E7593EFF

Скачать .torrent

Скачать

14 KB

Статус: проверено
Скачан: 0 раз
Размер: 2.73 GB
terms.php



Быстрый ответ

Имя:

      
Для отправки сообщений необходимо включить JavaScript
Показать сообщения:    

Текущее время: 11-Дек 09:09

Часовой пояс: UTC + 3


Вы можете начинать темы
Вы можете отвечать на сообщения
Вы не можете редактировать свои сообщения
Вы не можете удалять свои сообщения
Вы не можете голосовать в опросах
Вы не можете прикреплять файлы к сообщениям
Вы можете скачивать файлы