Разрешите представиться? Рокко Папалео / Permette? Rocco Papaleo (Этторе Скола / Ettore Scola) [1971, Италия, Франция, комедия, драма, DVDRip] DVO + MVO


Статистика раздачи [Обновить пиров]
Размер:  1.46 GB   |    Зарегистрирован:  1 год   |    Скачан:  0 раз

Полного источника не было: Никогда

Личеров:  6  [  0 KB/s  ]   Подробная статистика пиров
 
   
 
 
 

[Цитировать]

Разрешите представиться? Рокко Папалео / Permette? Rocco Papaleo
Страна: Италия, Франция
Жанр: комедия, драма
Год выпуска: 1971
Продолжительность: 01:41:35
Перевод: Профессиональный (двухголосый закадровый)
Перевод: Профессиональный (многоголосый закадровый)
Cубтитры: нет

Режиссер: Этторе Скола / Ettore Scola
В ролях: Марчелло Мастроянни, Питер Голдфарб, Лорен Хаттон, Том Рид, Николь Габуччи, Марго Новак, Паоло Натали
Описание: Провинциальный шахтер Рокко Папалео приезжает в Чикаго, чтобы попасть на боксерский матч, который он долгое время мечтал увидеть. Наивный простак теряется среди толпы, ошарашенный огромными зданиями. В поисках стадиона он попадает в центр города, где его сбивает автомобиль. Удар оказался не слишком сильным, и Рокко отделался лишь головокружением. Экстравагантная девушка за рулем по имени Дженни желает хоть чем-то помочь пострадавшему по ее вине. Она подвозит его до стадиона, но там Рокко понимает, что потерял билет на матч. Тогда Дженни приглашает наивного туриста к себе домой, чтобы вместе посмотреть поединок по телевизору. Когда подходит время отправления поезда, герой замечает, что Дженни уснула. Он оставляет ей благодарственную записку, а сам отправляется на вокзал. На перроне Рокко понимает, что потерял билет на поезд, а не на бокс. Стоя в очереди за новым билетом, он замечает рекламный плакат сигарет, на котором красуется его случайная знакомая Дженни.
Качество видео: DVDRip
Формат видео: AVI
Видео: 672x400 (1.68:1), 25 fps, XviD build 73 ~1658 kbps avg, 0.25 bit/pixel
Аудио: 48 kHz, AC3 Dolby Digital, 2/0 (L,R) ch, ~192 kbps - двухголосый
Аудио: 48 kHz, AC3 Dolby Digital, 2/0 (L,R) ch, ~192 kbps - многоголосый

MediaInfo

Общее
Полное имя : H:\Permette_Rocco.Papaleo.1971.dvdrip_[1.46]_[teko].avi
Формат : AVI
Формат/Информация : Audio Video Interleave
Размер файла : 1,46 Гбайт
Продолжительность : 1 ч. 41 м.
Общий поток : 2058 Кбит/сек
Программа кодирования : VirtualDubMod 1.5.10.3 | www.virtualdub-fr.org || (build 2550/release)
Библиотека кодирования : VirtualDubMod build 2550/release
Видео
Идентификатор : 0
Формат : MPEG-4 Visual
Профиль формата : Advanced Simple@L5
Параметр BVOP формата : 1
Параметр QPel формата : Нет
Параметр GMC формата : Без точки перехода
Параметр матрицы формата : Выборочная
Идентификатор кодека : XVID
Идентификатор кодека/Подсказка : XviD
Продолжительность : 1 ч. 41 м.
Битрейт : 1660 Кбит/сек
Ширина : 672 пикселя
Высота : 400 пикселей
Соотношение сторон : 1,680
Частота кадров : 25,000 кадров/сек
Цветовое пространство : YUV
Субдискретизация насыщенности : 4:2:0
Битовая глубина : 8 бит
Тип развёртки : Прогрессивная
Метод сжатия : С потерями
Бит/(Пиксели*Кадры) : 0.247
Размер потока : 1,18 Гбайт (81%)
Библиотека кодирования : XviD 73
Аудио #1
Идентификатор : 1
Формат : AC-3
Формат/Информация : Audio Coding 3
Расширение режима : CM (complete main)
Параметр Endianness формата : Big
Идентификатор кодека : 2000
Продолжительность : 1 ч. 41 м.
Вид битрейта : Постоянный
Битрейт : 192 Кбит/сек
Каналы : 2 канала
Расположение каналов : Front: L R
Частота : 48,0 КГц
Битовая глубина : 16 бит
Метод сжатия : С потерями
Размер потока : 140 Мбайт (9%)
Выравнивание : Разделение по промежуткам
Продолжительность промежутка : 40 мс. (1,00 видеокадр)
Время предзагрузки промежутка : 500 мс.
Аудио #2
Идентификатор : 2
Формат : AC-3
Формат/Информация : Audio Coding 3
Расширение режима : CM (complete main)
Параметр Endianness формата : Big
Идентификатор кодека : 2000
Продолжительность : 1 ч. 41 м.
Вид битрейта : Постоянный
Битрейт : 192 Кбит/сек
Каналы : 2 канала
Расположение каналов : Front: L R
Частота : 48,0 КГц
Битовая глубина : 16 бит
Метод сжатия : С потерями
Размер потока : 140 Мбайт (9%)
Выравнивание : Разделение по промежуткам
Продолжительность промежутка : 40 мс. (1,00 видеокадр)
Время предзагрузки промежутка : 500 мс.
[teatrix.ru].t12470.torrent 
Торрент: Зарегистрирован [ 2016-01-01 06:15 ] · C63A04E26752D03AE38E45E8F0A2BB14571E98F6

Скачать .torrent

Скачать

15 KB

Статус: проверено
Скачан: 0 раз
Размер: 1.46 GB
terms.php



Быстрый ответ

Имя:

      
Для отправки сообщений необходимо включить JavaScript
Показать сообщения:    

Текущее время: 25-Янв 00:22

Часовой пояс: UTC + 3


Вы можете начинать темы
Вы можете отвечать на сообщения
Вы не можете редактировать свои сообщения
Вы не можете удалять свои сообщения
Вы не можете голосовать в опросах
Вы не можете прикреплять файлы к сообщениям
Вы можете скачивать файлы