Рейнальдо Ан - Луковка (Сибулетт) / Reynaldo Hahn - Ciboulette (Julie Fuchs) (Laurence Equilbey / Michel Fau) [2013/2014, Operettе, DVDRip-AVC] Sub [Русские · Elena-Rybka][Eng, Ger, Fre, Ita, Esp.] (bonus)


 

[Цитировать]

- Национальный театр комической оперы Парижа представляет
Рейнальдо АН · Reynaldo HAHN
9 августа (August 9,) 1874 — 28 января (January 28,) 1947
»«Л У К О В К А»«
Либретто Робера де Флера (Robert de Flers, 1872-1927) и
Франсиса де Круассе (Francis de Croisset, 1877-1937)
-- ПОСТАНОВКА Мишель ФО Michel Fau
Год записи/выхода: 2013/2014
Лейбл: FRA Musica
Жанр: Operette
Язык: Французский
ПЕРЕВОД © Elena-Rybka
Субтитры/Subtitles: РУССКИЕ,
English, Deutsch, French, Italiano, Espanol в составе контейнера
Продолжительность: 144 min.
СИБУЛЕТТ Жюли ФУКС Julie Fuchs: Ciboulette
АНТОНЕН Жюльен БЕР Julien Behr: Antonin
ДЮПАРКЕ Жан-Франсуа ЛАПУАН Jean-François Lapointe: Duparquet
ЗЕНОБИЯ Эва ГАНИЗА Eva Ganizate: Zénobie
РОЖЕ Ронан ДЕБУА Ronan Debois: Roger
ФРАНСУАЗА Сесиль АШИЛЛЬ Cécile Achille: Françoise
ПАПАША ГРЕНЮ Жан-Клод САРАГОСС Jean-Claude Saragosse: Monsieur Grenu
МАТУШКА ГРЕНЮ Гийметта ЛОРАНС Guillemette Laurens: Madame Grenu
Хор и Оркестр ОПЕРЫ ТУЛОНА
ДИРИЖЁР Лоранс ЭКИЛБИ Laurence Equilbey

Качество видео: DVDRip-AVC
Исходник: 2xDVD9 [Спасибо, DTROMP]
Контейнер: MKV
Аудио кодек: DTS
Видео поток: H.264, 720@875x480 (AR 1.85:1), Variable, 29,970 fps.
Аудио поток: Français, 755 kbps, 48,0 KHz, 24-bit, 6 ch original
Aудио AC3 320 kbps (original) на Яндексе

Скриншоты

MediaInfoPart1


-

x264.log


avs [info]: 720x480p 5760:4739 @ 30000/1001 fps (cfr)
x264 [info]: using SAR=5760/4739
x264 [info]: using cpu capabilities: MMX2 SSE2Fast LZCNT
x264 [info]: profile High, level 4.1
x264 [info]: frame I:557 Avg QP:16.11 size: 57259
x264 [info]: frame P:34755 Avg QP:19.13 size: 11932
x264 [info]: frame B:77092 Avg QP:22.80 size: 1706
x264 [info]: consecutive B-frames: 1.9% 12.4% 22.9% 62.8%
x264 [info]: mb I I16..4: 4.4% 65.7% 29.9%
x264 [info]: mb P I16..4: 0.2% 1.6% 0.6% P16..4: 43.1% 24.4% 18.9% 0.0% 0.0% skip:11.2%
x264 [info]: mb B I16..4: 0.0% 0.0% 0.0% B16..8: 35.6% 2.9% 0.8% direct: 1.6% skip:59.2% L0:35.9% L1:55.9% BI: 8.2%
x264 [info]: 8x8 transform intra:66.8% inter:68.9%
x264 [info]: coded y,uvDC,uvAC intra: 87.1% 90.7% 67.2% inter: 18.2% 24.0% 3.9%
x264 [info]: i16 v,h,dc,p: 61% 9% 10% 19%
x264 [info]: i8 v,h,dc,ddl,ddr,vr,hd,vl,hu: 31% 11% 15% 4% 7% 10% 6% 9% 7%
x264 [info]: i4 v,h,dc,ddl,ddr,vr,hd,vl,hu: 26% 11% 11% 6% 10% 12% 8% 9% 7%
x264 [info]: i8c dc,h,v,p: 45% 15% 32% 9%
x264 [info]: Weighted P-Frames: Y:0.7% UV:0.4%
x264 [info]: ref P L0: 55.5% 13.1% 23.2% 8.2% 0.0%
x264 [info]: ref B L0: 84.3% 13.1% 2.6%
x264 [info]: ref B L1: 94.0% 6.0%
x264 [info]: kb/s:1233.18
-
General
Unique ID : 184781756888075097526509313627805416318 (0x8B03AC001CE6999C829234D0FDB37B7E)
Complete name : Reynaldo Hahn - Ciboulette (2013)\Ciboulette Pt1.mkv
Format : Matroska
Format version : Version 4 / Version 2
File size : 894 MiB
Duration : 1h 2mn
Overall bit rate : 2 000 Kbps
Encoded date : UTC 2015-12-31 13:53:59
Writing application : mkvmerge v8.3.0 ('Over the Horizon') 32bit
Writing library : libebml v1.3.1 + libmatroska v1.4.2
Video
ID : 1
Format : AVC
Format/Info : Advanced Video Codec
Format profile : High@L4.1
Format settings, CABAC : Yes
Format settings, ReFrames : 4 frames
Codec ID : V_MPEG4/ISO/AVC
Duration : 1h 2mn
Bit rate : 1 206 Kbps
Width : 720 pixels
Height : 480 pixels
Display aspect ratio : 1.85:1
Frame rate mode : Constant
Frame rate : 29.970 fps
Standard : NTSC
Color space : YUV
Chroma subsampling : 4:2:0
Bit depth : 8 bits
Scan type : Progressive
Bits/(Pixel*Frame) : 0.116
Stream size : 539 MiB (60%)
Writing library : x264 core 146 r2538 121396c
Encoding settings : cabac=1 / ref=3 / deblock=1:0:0 / analyse=0x3:0x113 / me=hex / subme=7 / psy=1 / psy_rd=1.00:0.00 / mixed_ref=1 / me_range=16 / chroma_me=1 / trellis=1 / 8x8dct=1 / cqm=0 / deadzone=21,11 / fast_pskip=1 / chroma_qp_offset=-2 / threads=4 / lookahead_threads=1 / sliced_threads=0 / nr=0 / decimate=1 / interlaced=0 / bluray_compat=0 / constrained_intra=0 / bframes=3 / b_pyramid=2 / b_adapt=1 / b_bias=0 / direct=1 / weightb=1 / open_gop=0 / weightp=2 / keyint=300 / keyint_min=29 / scenecut=40 / intra_refresh=0 / rc_lookahead=40 / rc=crf / mbtree=1 / crf=19.0 / qcomp=0.60 / qpmin=0 / qpmax=69 / qpstep=4 / vbv_maxrate=62500 / vbv_bufsize=78125 / crf_max=0.0 / nal_hrd=none / filler=0 / ip_ratio=1.40 / aq=1:1.00
Default : Yes
Forced : No
Audio
ID : 2
Format : DTS
Format/Info : Digital Theater Systems
Mode : 16
Format settings, Endianness : Big
Codec ID : A_DTS
Duration : 1h 2mn
Bit rate mode : Constant
Bit rate : 755 Kbps
Channel(s) : 6 channels
Channel positions : Front: L C R, Side: L R, LFE
Sampling rate : 48.0 KHz
Bit depth : 24 bits
Compression mode : Lossy
Stream size : 337 MiB (38%)
Language : French
Default : Yes
Forced : No
Text #1
ID : 3
Format : UTF-8
Codec ID : S_TEXT/UTF8
Codec ID/Info : UTF-8 Plain Text
Language : Russian
Default : Yes
Forced : Yes
Text #2
ID : 4
Format : VobSub
Muxing mode : zlib
Codec ID : S_VOBSUB
Codec ID/Info : Picture based subtitle format used on DVDs
Language : German
Default : No
Forced : No
Text #3
ID : 5
Format : VobSub
Muxing mode : zlib
Codec ID : S_VOBSUB
Codec ID/Info : Picture based subtitle format used on DVDs
Language : English
Default : No
Forced : No
Text #4
ID : 6
Format : VobSub
Muxing mode : zlib
Codec ID : S_VOBSUB
Codec ID/Info : Picture based subtitle format used on DVDs
Language : Spanish
Default : No
Forced : No
Text #5
ID : 7
Format : VobSub
Muxing mode : zlib
Codec ID : S_VOBSUB
Codec ID/Info : Picture based subtitle format used on DVDs
Language : French
Default : No
Forced : No
Text #6
ID : 8
Format : VobSub
Muxing mode : zlib
Codec ID : S_VOBSUB
Codec ID/Info : Picture based subtitle format used on DVDs
Language : Italian
Default : No
Forced : No

Part2


-

x264.log


avs [info]: 720x480p 5760:4739 @ 30000/1001 fps (cfr)
x264 [info]: using SAR=5760/4739
x264 [info]: using cpu capabilities: MMX2 SSE2Fast LZCNT
x264 [info]: profile High, level 4.1
x264 [info]: frame I:767 Avg QP:16.40 size: 47488
x264 [info]: frame P:52261 Avg QP:19.34 size: 10200
x264 [info]: frame B:95347 Avg QP:21.98 size: 1896
x264 [info]: consecutive B-frames: 4.3% 22.4% 22.9% 50.5%
x264 [info]: mb I I16..4: 8.4% 67.4% 24.2%
x264 [info]: mb P I16..4: 0.3% 1.1% 0.4% P16..4: 46.9% 21.4% 15.9% 0.0% 0.0% skip:14.0%
x264 [info]: mb B I16..4: 0.0% 0.0% 0.0% B16..8: 37.9% 2.8% 0.7% direct: 2.0% skip:56.5% L0:38.4% L1:54.3% BI: 7.3%
x264 [info]: 8x8 transform intra:64.6% inter:75.6%
x264 [info]: coded y,uvDC,uvAC intra: 79.2% 94.3% 80.0% inter: 18.0% 29.3% 5.3%
x264 [info]: i16 v,h,dc,p: 66% 6% 9% 18%
x264 [info]: i8 v,h,dc,ddl,ddr,vr,hd,vl,hu: 35% 10% 19% 4% 6% 9% 5% 8% 6%
x264 [info]: i4 v,h,dc,ddl,ddr,vr,hd,vl,hu: 29% 10% 12% 6% 9% 11% 7% 9% 7%
x264 [info]: i8c dc,h,v,p: 37% 12% 41% 10%
x264 [info]: Weighted P-Frames: Y:1.0% UV:0.5%
x264 [info]: ref P L0: 55.7% 10.9% 23.5% 9.8% 0.1%
x264 [info]: ref B L0: 78.5% 18.2% 3.2%
x264 [info]: ref B L1: 93.5% 6.5%
x264 [info]: kb/s:1212.36
-
General
Unique ID : 194075221758482237516195528521439325014 (0x92018731E0BA05A5A8FBEF7B51892B56)
Complete name : Reynaldo Hahn - Ciboulette (2013)\Ciboulette Pt2.mkv
Format : Matroska
Format version : Version 4 / Version 2
File size : 1.14 GiB
Duration : 1h 22mn
Overall bit rate : 1 978 Kbps
Encoded date : UTC 2015-12-31 14:13:08
Writing application : mkvmerge v8.3.0 ('Over the Horizon') 32bit
Writing library : libebml v1.3.1 + libmatroska v1.4.2
Video
ID : 1
Format : AVC
Format/Info : Advanced Video Codec
Format profile : High@L4.1
Format settings, CABAC : Yes
Format settings, ReFrames : 4 frames
Codec ID : V_MPEG4/ISO/AVC
Duration : 1h 22mn
Bit rate : 1 184 Kbps
Width : 720 pixels
Height : 480 pixels
Display aspect ratio : 1.85:1
Frame rate mode : Constant
Frame rate : 29.970 fps
Standard : NTSC
Color space : YUV
Chroma subsampling : 4:2:0
Bit depth : 8 bits
Scan type : Progressive
Bits/(Pixel*Frame) : 0.114
Stream size : 699 MiB (60%)
Writing library : x264 core 146 r2538 121396c
Encoding settings : cabac=1 / ref=3 / deblock=1:0:0 / analyse=0x3:0x113 / me=hex / subme=7 / psy=1 / psy_rd=1.00:0.00 / mixed_ref=1 / me_range=16 / chroma_me=1 / trellis=1 / 8x8dct=1 / cqm=0 / deadzone=21,11 / fast_pskip=1 / chroma_qp_offset=-2 / threads=4 / lookahead_threads=1 / sliced_threads=0 / nr=0 / decimate=1 / interlaced=0 / bluray_compat=0 / constrained_intra=0 / bframes=3 / b_pyramid=2 / b_adapt=1 / b_bias=0 / direct=1 / weightb=1 / open_gop=0 / weightp=2 / keyint=300 / keyint_min=29 / scenecut=40 / intra_refresh=0 / rc_lookahead=40 / rc=crf / mbtree=1 / crf=19.0 / qcomp=0.60 / qpmin=0 / qpmax=69 / qpstep=4 / vbv_maxrate=62500 / vbv_bufsize=78125 / crf_max=0.0 / nal_hrd=none / filler=0 / ip_ratio=1.40 / aq=1:1.00
Default : Yes
Forced : No
Audio
ID : 2
Format : DTS
Format/Info : Digital Theater Systems
Mode : 16
Format settings, Endianness : Big
Codec ID : A_DTS
Duration : 1h 22mn
Bit rate mode : Constant
Bit rate : 755 Kbps
Channel(s) : 6 channels
Channel positions : Front: L C R, Side: L R, LFE
Sampling rate : 48.0 KHz
Bit depth : 24 bits
Compression mode : Lossy
Stream size : 445 MiB (38%)
Language : French
Default : Yes
Forced : No
Text #1
ID : 3
Format : UTF-8
Codec ID : S_TEXT/UTF8
Codec ID/Info : UTF-8 Plain Text
Language : Russian
Default : Yes
Forced : Yes
Text #2
ID : 4
Format : VobSub
Muxing mode : zlib
Codec ID : S_VOBSUB
Codec ID/Info : Picture based subtitle format used on DVDs
Language : German
Default : No
Forced : No
Text #3
ID : 5
Format : VobSub
Muxing mode : zlib
Codec ID : S_VOBSUB
Codec ID/Info : Picture based subtitle format used on DVDs
Language : English
Default : No
Forced : No
Text #4
ID : 6
Format : VobSub
Muxing mode : zlib
Codec ID : S_VOBSUB
Codec ID/Info : Picture based subtitle format used on DVDs
Language : Spanish
Default : No
Forced : No
Text #5
ID : 7
Format : VobSub
Muxing mode : zlib
Codec ID : S_VOBSUB
Codec ID/Info : Picture based subtitle format used on DVDs
Language : French
Default : No
Forced : No
Text #6
ID : 8
Format : VobSub
Muxing mode : zlib
Codec ID : S_VOBSUB
Codec ID/Info : Picture based subtitle format used on DVDs
Language : Italian
Default : No
Forced : No
***
"Оперетта - это дочь комической оперы,
дочь плохо сложенная, но не все плохо сложенные девушки
лишены прелестей и приятных качеств."
Камиль Сен-Санс

Язык: Французский
ПЕРЕВОД © Elena-Rybka
Субтитры/Subtitles: РУССКИЕ,
English, Deutsch, French, Italian, Espanol в составе контейнера
Продолжительность: 31 min. Качество видео: DVDRip-AVC
Формат/Контейнер: MKV
Видео поток: H.264, 720@875x480 (AR 1.85:1), 686 kbps, 29,970 fps.
Аудио поток: Français, AC3 192 kbps, 48,0 KHz, 2 ch original
В ФИЛЬМЕ УЧАСТВУЮТ:
АНЬЕСА ТЕРРЬЕ (Agnès Terrier), драматург · ЛОРАНС ЭКИЛБИ (Laurence Equilbey), дирижёр
ЖЕРОМ ДЕКАН (Jérôme Deschamps), директор театра · МИШЕЛЬ ФО (Michel Fau), режиссёр
ЖЮЛИ ФУКС (Julie Fuchs), сопрано

MediaInfo (documentary)


-

x264.log


avs [info]: 720x480p 32:27 @ 30000/1001 fps (cfr)
x264 [info]: using SAR=32/27
x264 [info]: using cpu capabilities: MMX2 SSE2Fast LZCNT
x264 [info]: profile High, level 4.1
x264 [info]: frame I:246 Avg QP:17.13 size: 40521
x264 [info]: frame P:12809 Avg QP:18.11 size: 7109
x264 [info]: frame B:42314 Avg QP:22.27 size: 1357
x264 [info]: consecutive B-frames: 1.6% 0.8% 9.2% 38.3% 20.6% 25.2% 3.7% 0.7%
x264 [info]: mb I I16..4: 4.3% 84.0% 11.6%
x264 [info]: mb P I16..4: 0.1% 1.6% 0.1% P16..4: 30.5% 28.2% 10.3% 0.0% 0.0% skip:29.1%
x264 [info]: mb B I16..4: 0.0% 0.1% 0.0% B16..8: 23.5% 8.7% 0.9% direct: 1.3% skip:65.4% L0:36.3% L1:49.4% BI:14.3%
x264 [info]: 8x8 transform intra:84.1% inter:57.5%
x264 [info]: coded y,uvDC,uvAC intra: 91.5% 92.0% 78.7% inter: 6.7% 9.8% 2.6%
x264 [info]: i16 v,h,dc,p: 65% 4% 3% 28%
x264 [info]: i8 v,h,dc,ddl,ddr,vr,hd,vl,hu: 19% 8% 7% 7% 10% 14% 9% 15% 12%
x264 [info]: i4 v,h,dc,ddl,ddr,vr,hd,vl,hu: 19% 5% 5% 8% 14% 17% 10% 13% 9%
x264 [info]: i8c dc,h,v,p: 39% 20% 24% 17%
x264 [info]: Weighted P-Frames: Y:0.1% UV:0.1%
x264 [info]: ref P L0: 48.2% 9.4% 16.9% 5.3% 5.5% 4.6% 4.6% 2.3% 2.6% 0.5% 0.0%
x264 [info]: ref B L0: 82.9% 9.6% 2.9% 1.4% 1.1% 1.1% 0.7% 0.3%
x264 [info]: ref B L1: 95.6% 4.4%
x264 [info]: kb/s:686.18
-
General
Unique ID : 208110013172382089304206949571336936795 (0x9C9087D6070DACC1B3F7FE5E70551D5B)
Complete name : Reynaldo Hahn - Ciboulette (2013)\Ciboulette (documentary).mkv
Format : Matroska
Format version : Version 4 / Version 2
File size : 187 MiB
Duration : 30mn 47s
Overall bit rate : 847 Kbps
Encoded date : UTC 2015-12-31 14:03:57
Writing application : mkvmerge v8.3.0 ('Over the Horizon') 32bit
Writing library : libebml v1.3.1 + libmatroska v1.4.2
Video
ID : 1
Format : AVC
Format/Info : Advanced Video Codec
Format profile : High@L4.1
Format settings, CABAC : Yes
Format settings, ReFrames : 4 frames
Codec ID : V_MPEG4/ISO/AVC
Duration : 30mn 47s
Bit rate : 638 Kbps
Width : 720 pixels
Height : 480 pixels
Display aspect ratio : 1.85:1
Frame rate mode : Constant
Frame rate : 29.970 fps
Standard : NTSC
Color space : YUV
Chroma subsampling : 4:2:0
Bit depth : 8 bits
Scan type : Progressive
Bits/(Pixel*Frame) : 0.062
Stream size : 141 MiB (75%)
Writing library : x264 core 146 r2538 121396c
Encoding settings : cabac=1 / ref=3 / deblock=1:0:0 / analyse=0x3:0x113 / me=hex / subme=7 / psy=1 / psy_rd=1.00:0.00 / mixed_ref=1 / me_range=16 / chroma_me=1 / trellis=1 / 8x8dct=1 / cqm=0 / deadzone=21,11 / fast_pskip=1 / chroma_qp_offset=-2 / threads=4 / lookahead_threads=1 / sliced_threads=0 / nr=0 / decimate=1 / interlaced=0 / bluray_compat=0 / constrained_intra=0 / bframes=3 / b_pyramid=2 / b_adapt=1 / b_bias=0 / direct=1 / weightb=1 / open_gop=0 / weightp=2 / keyint=300 / keyint_min=29 / scenecut=40 / intra_refresh=0 / rc_lookahead=40 / rc=crf / mbtree=1 / crf=19.6 / qcomp=0.60 / qpmin=0 / qpmax=69 / qpstep=4 / vbv_maxrate=62500 / vbv_bufsize=78125 / crf_max=0.0 / nal_hrd=none / filler=0 / ip_ratio=1.40 / aq=1:1.00
Default : Yes
Forced : No
Audio
ID : 2
Format : AC-3
Format/Info : Audio Coding 3
Mode extension : CM (complete main)
Format settings, Endianness : Big
Codec ID : A_AC3
Duration : 30mn 47s
Bit rate mode : Constant
Bit rate : 192 Kbps
Channel(s) : 2 channels
Channel positions : Front: L R
Sampling rate : 48.0 KHz
Compression mode : Lossy
Stream size : 42.3 MiB (23%)
Language : French
Default : Yes
Forced : No
Text #1
ID : 3
Format : UTF-8
Codec ID : S_TEXT/UTF8
Codec ID/Info : UTF-8 Plain Text
Language : Russian
Default : Yes
Forced : Yes
Text #2
ID : 4
Format : VobSub
Muxing mode : zlib
Codec ID : S_VOBSUB
Codec ID/Info : Picture based subtitle format used on DVDs
Language : German
Default : No
Forced : No
Text #3
ID : 5
Format : VobSub
Muxing mode : zlib
Codec ID : S_VOBSUB
Codec ID/Info : Picture based subtitle format used on DVDs
Language : English
Default : No
Forced : No
Text #4
ID : 6
Format : VobSub
Muxing mode : zlib
Codec ID : S_VOBSUB
Codec ID/Info : Picture based subtitle format used on DVDs
Language : Spanish
Default : No
Forced : No
Text #5
ID : 7
Format : VobSub
Muxing mode : zlib
Codec ID : S_VOBSUB
Codec ID/Info : Picture based subtitle format used on DVDs
Language : French
Default : No
Forced : No
Text #6
ID : 8
Format : VobSub
Muxing mode : zlib
Codec ID : S_VOBSUB
Codec ID/Info : Picture based subtitle format used on DVDs
Language : Italian
Default : No
Forced : No



Показать сообщения:    

Текущее время: 06-Дек 17:11

Часовой пояс: UTC + 3


Вы не можете начинать темы
Вы не можете отвечать на сообщения
Вы не можете редактировать свои сообщения
Вы не можете удалять свои сообщения
Вы не можете голосовать в опросах
Вы не можете прикреплять файлы к сообщениям
Вы не можете скачивать файлы