Триумф Воли / Triumph des Willens / Triumph of the Will & День свободы! - Наш вермахт!/Tag der Freiheit! – Unsere Wehrmacht (Лени Рифеншталь / Leni Riefenstahl) [1934, документальный, военный, DVDRip-AVC] VO + Original Ger


Статистика раздачи [Обновить пиров]
Размер:  3.53 GB   |    Зарегистрирован:  11 месяцев 8 дней   |    Скачан:  0 раз

Полного источника не было: Никогда

Личеров:  6  [  0 KB/s  ]   Подробная статистика пиров
 
   
 
 
 

[Цитировать]

Триумф Воли / Triumph des Willens & День свободы! - Наш вермахт!/Tag der Freiheit! – Unsere Wehrmacht
Слоган: «The infamous propaganda film»
Год выпуска: 1934
Страна: Германия
Кинокомпания: ...
Жанр: документальный, военный
Продолжительность: 01:50:32 | 00:16:55
Перевод 1: Любительский (одноголосый)
Перевод 2: Оригинал, Немецкий
Перевод 3: Английский, комментарий ко всему фильму историка д-ра Энтони Р. Санторо
Режиссер: Лени Рифеншталь / Leni Riefenstahl
В ролях: Макс Аманн, Вальтер Бух, Отто Дитрих, Зепп Дитрих, Якоб Гриммингер, Рейнхард Гейдрих, Константин Хирль, Franz Hofer, Роберт Лей, Виктор Лютце и др.
Описание:
"Триумф воли" (нем.: Triumph des Willens) — чёрно-белый документальный фильм полнометражного формата, снятый группой деятелей немецкого кино по идее и под руководством кинорежиссёра и продюсера Лени Рифеншталь (Helene Bertha Amalia Riefenstahl, 1902-2003).
Премьера состоялась в 1936 году в кинотеатре "УФА-Паласт" в исторической части Берлина. Съёмки и действие фильма ограничены временными сроками проведения ежегодного съезда Национал-социалистической рабочей партии Германии в Нюрнберге. Погодные условия сентября 1934 года позволили Рифеншталь реализовать новаторские киноэффекты. Кроме 25 профессиональных операторов на съёмках работали десятки и сотни помощников и администраторов. Операторов учили кататься на роликовых коньках, чтобы получить с помощью ручных камер хорошие кадры в движении. Монтаж фильма занял почти полгода, Лени спала по четыре часа в сутки, но результаты того стоили – пропагандистский успех фильма был ошеломляющим.
Цитаты из фильма:
"Германия — это дом для немцев всего мира". (Рудольф Гесс)
"Мы видим, что нет различий между классами". (Бальдур фон Ширах)
"Мы умрём, но за вами — будущее". (Адольф Гитлер)
"Впереди нас, вокруг нас, позади нас — везде Германия". (Адольф Гитлер)
"Может и хорошо обладать властью, основанной на диктатуре, но гораздо лучше завоевывать и не терять сердца людей". (Пауль Йозеф Геббельс)
Сэмпл: Ссылка
Качество: DVDRip-AVC
Формат: MKV
Видео кодек: H.264
Аудио кодек: AC3
Видео: 720x480 (-> 768x480) at 25.000 fps, MPEG-4 AVC (High@L4.1), ~3 463 Kbps / ~2 516 Kbps
Аудио 1: AC3 48.0 KHz 2.0ch. 224 kbps | Ru
Аудио 2: AC3 48.0 KHz 2.0ch. 192 kbps | Ger
Аудио 3: AC3 48.0 KHz 2.0ch. 192 kbps | En

x264 Logx264 Log: Триумф Воли / Triumph des Willens

x264 [info]: profile High, level 4.1
x264 [info]: frame I:998 Avg QP:19.08 size: 37976
x264 [info]: frame P:33136 Avg QP:20.22 size: 26505
x264 [info]: frame B:124877 Avg QP:22.12 size: 16186
x264 [info]: consecutive B-frames: 1.2% 1.6% 5.3% 30.8% 17.8% 21.5% 8.7% 8.9% 4.1%
x264 [info]: mb I I16..4: 2.0% 88.9% 9.2%
x264 [info]: mb P I16..4: 0.1% 34.6% 1.3% P16..4: 21.1% 28.1% 12.7% 0.9% 0.0% skip: 1.2%
x264 [info]: mb B I16..4: 0.0% 10.5% 0.2% B16..8: 34.6% 25.8% 6.8% direct:15.3% skip: 6.8% L0:44.2% L1:37.4% BI:18.4%
x264 [info]: 8x8 transform intra:97.0% inter:69.9%
x264 [info]: coded y,uvDC,uvAC intra: 99.4% 14.1% 1.0% inter: 75.3% 5.9% 0.0%
x264 [info]: i16 v,h,dc,p: 45% 20% 17% 18%
x264 [info]: i8 v,h,dc,ddl,ddr,vr,hd,vl,hu: 7% 8% 8% 10% 15% 12% 13% 12% 15%
x264 [info]: i4 v,h,dc,ddl,ddr,vr,hd,vl,hu: 7% 8% 2% 8% 17% 15% 17% 11% 14%
x264 [info]: i8c dc,h,v,p: 47% 45% 6% 1%
x264 [info]: Weighted P-Frames: Y:56.7% UV:0.0%
x264 [info]: ref P L0: 35.7% 14.3% 13.6% 9.4% 6.1% 5.1% 4.2% 3.0% 2.5% 2.4% 2.2% 1.4% 0.1%
x264 [info]: ref B L0: 65.8% 13.1% 6.9% 3.9% 3.0% 2.5% 2.1% 1.5% 0.9% 0.4%
x264 [info]: ref B L1: 91.1% 8.9%
x264 [info]: kb/s:3543.26

x264 Log: Tag der Freiheit! – Unsere Wehrmacht

x264 [info]: profile High, level 4.1
x264 [info]: frame I:146 Avg QP:19.52 size: 29182
x264 [info]: frame P:5554 Avg QP:21.89 size: 17043
x264 [info]: frame B:18644 Avg QP:23.30 size: 12181
x264 [info]: consecutive B-frames: 1.5% 2.8% 8.4% 34.8% 21.9% 18.9% 6.0% 3.6% 2.3%
x264 [info]: mb I I16..4: 11.6% 71.6% 16.8%
x264 [info]: mb P I16..4: 2.3% 28.4% 4.0% P16..4: 33.9% 15.9% 9.0% 0.3% 0.1% skip: 6.1%
x264 [info]: mb B I16..4: 0.2% 8.6% 1.1% B16..8: 33.7% 19.3% 5.8% direct:12.8% skip:18.6% L0:50.1% L1:40.8% BI: 9.1%
x264 [info]: 8x8 transform intra:83.8% inter:64.3%
x264 [info]: coded y,uvDC,uvAC intra: 90.4% 10.4% 0.2% inter: 54.2% 8.5% 0.0%
x264 [info]: i16 v,h,dc,p: 44% 20% 9% 27%
x264 [info]: i8 v,h,dc,ddl,ddr,vr,hd,vl,hu: 6% 8% 4% 11% 17% 14% 17% 11% 14%
x264 [info]: i4 v,h,dc,ddl,ddr,vr,hd,vl,hu: 5% 8% 2% 9% 15% 14% 17% 12% 16%
x264 [info]: i8c dc,h,v,p: 87% 9% 4% 0%
x264 [info]: Weighted P-Frames: Y:35.4% UV:0.5%
x264 [info]: ref P L0: 33.5% 11.1% 15.1% 9.4% 7.1% 6.2% 5.1% 3.3% 2.9% 2.7% 2.4% 1.1% 0.1%
x264 [info]: ref B L0: 58.2% 14.4% 8.7% 5.1% 4.0% 3.3% 2.8% 1.9% 1.1% 0.6%
x264 [info]: ref B L1: 89.9% 10.1%
x264 [info]: kb/s:2568.72

MIMI: Триумф Воли / Triumph des Willens

General
Unique ID : 220075618282471091321382550816033891482 (0xA59105B74940BBD18BD5F6030880649A)
Complete name : Triumph of the Will.1934.DVDRip-AVC.3xAC3.mkv
Format : Matroska
Format version : Version 4 / Version 2
File size : 3.21 GiB
Duration : 1h 50mn
Overall bit rate : 4 153 Kbps
Encoded date : UTC 2015-12-29 20:59:22
Writing application : mkvmerge v8.3.0 ('Over the Horizon') 64bit
Writing library : libebml v1.3.1 + libmatroska v1.4.2
DURATION : 01:50:30.432000000
NUMBER_OF_FRAMES : 207201
NUMBER_OF_BYTES : 159130368
_STATISTICS_WRITING_APP : mkvmerge v8.3.0 ('Over the Horizon') 64bit
_STATISTICS_WRITING_DATE_UTC : 2015-12-29 20:59:22
_STATISTICS_TAGS : BPS DURATION NUMBER_OF_FRAMES NUMBER_OF_BYTES
Video
ID : 1
Format : AVC
Format/Info : Advanced Video Codec
Format profile : High@L4.1
Format settings, CABAC : Yes
Format settings, ReFrames : 11 frames
Codec ID : V_MPEG4/ISO/AVC
Duration : 1h 50mn
Bit rate : 3 463 Kbps
Width : 720 pixels
Height : 480 pixels
Display aspect ratio : 3:2
Frame rate mode : Constant
Frame rate : 23.976 fps
Color space : YUV
Chroma subsampling : 4:2:0
Bit depth : 8 bits
Scan type : Progressive
Bits/(Pixel*Frame) : 0.418
Stream size : 2.67 GiB (83%)
Writing library : x264 core 146 r2538 121396c
Encoding settings : cabac=1 / ref=11 / deblock=1:-2:-2 / analyse=0x3:0x133 / me=umh / subme=11 / psy=1 / psy_rd=1.10:0.05 / mixed_ref=1 / me_range=32 / chroma_me=1 / trellis=2 / 8x8dct=1 / cqm=0 / deadzone=21,11 / fast_pskip=0 / chroma_qp_offset=-3 / threads=6 / lookahead_threads=1 / sliced_threads=0 / nr=0 / decimate=1 / interlaced=0 / bluray_compat=0 / constrained_intra=0 / bframes=8 / b_pyramid=2 / b_adapt=2 / b_bias=0 / direct=1 / weightb=1 / open_gop=0 / weightp=2 / keyint=250 / keyint_min=23 / scenecut=40 / intra_refresh=0 / rc_lookahead=40 / rc=crf / mbtree=0 / crf=18.0 / qcomp=0.65 / qpmin=0 / qpmax=69 / qpstep=4 / vbv_maxrate=62500 / vbv_bufsize=78125 / crf_max=0.0 / nal_hrd=none / filler=0 / ip_ratio=1.40 / pb_ratio=1.30 / aq=3:0.80
Language : German
Default : Yes
Forced : No
Color range : Full
Color primaries : BT.601 PAL
Transfer characteristics : BT.470 System B, BT.470 System G
Matrix coefficients : BT.601
DURATION : 01:50:32.084000000
NUMBER_OF_FRAMES : 159011
NUMBER_OF_BYTES : 2937398611
_STATISTICS_WRITING_APP : mkvmerge v8.3.0 ('Over the Horizon') 64bit
_STATISTICS_WRITING_DATE_UTC : 2015-12-29 20:59:22
_STATISTICS_TAGS : BPS DURATION NUMBER_OF_FRAMES NUMBER_OF_BYTES
Audio #1
ID : 2
Format : AC-3
Format/Info : Audio Coding 3
Mode extension : CM (complete main)
Format settings, Endianness : Big
Codec ID : A_AC3
Duration : 1h 50mn
Bit rate mode : Constant
Bit rate : 224 Kbps
Channel(s) : 2 channels
Channel positions : Front: L R
Sampling rate : 48.0 KHz
Compression mode : Lossy
Stream size : 177 MiB (5%)
Title : AC3 | 48 kHz | 2.0, 224 kbps; VO / Любительский
Language : Russian
Default : Yes
Forced : No
Audio #2
ID : 3
Format : AC-3
Format/Info : Audio Coding 3
Mode extension : C (commentary)
Format settings, Endianness : Big
Codec ID : A_AC3
Duration : 1h 50mn
Bit rate mode : Constant
Bit rate : 192 Kbps
Channel(s) : 2 channels
Channel positions : Front: L R
Sampling rate : 48.0 KHz
Compression mode : Lossy
Stream size : 152 MiB (5%)
Title : AC3 | 48 kHz | 2.0, 192 kbps; Оригинал / Немецкий
Language : German
Default : No
Forced : No
Audio #3
ID : 4
Format : AC-3
Format/Info : Audio Coding 3
Mode extension : CM (complete main)
Format settings, Endianness : Big
Codec ID : A_AC3
Duration : 1h 50mn
Bit rate mode : Constant
Bit rate : 192 Kbps
Channel(s) : 2 channels
Channel positions : Front: L R
Sampling rate : 48.0 KHz
Compression mode : Lossy
Stream size : 152 MiB (5%)
Title : AC3 | 48 kHz | 2.0, 192 kbps; Английский / аудиокомментарий историка д-ра Энтони Р. Санторо
Language : English
Default : No
Forced : No

MI: Tag der Freiheit! – Unsere Wehrmacht

General
Unique ID : 200766352428320820565998683837188271758 (0x970A31683B7F7399B2503F5746BBEE8E)
Complete name : Tag der Freiheit. Unsere Wehrmacht.1934.DVDRip-AVC.mkv
Format : Matroska
Format version : Version 4 / Version 2
File size : 334 MiB
Duration : 16mn 55s
Overall bit rate : 2 762 Kbps
Encoded date : UTC 2015-12-29 21:06:57
Writing application : mkvmerge v8.3.0 ('Over the Horizon') 64bit
Writing library : libebml v1.3.1 + libmatroska v1.4.2
DURATION : 00:16:55.328000000
NUMBER_OF_FRAMES : 31729
NUMBER_OF_BYTES : 24367872
_STATISTICS_WRITING_APP : mkvmerge v8.3.0 ('Over the Horizon') 64bit
_STATISTICS_WRITING_DATE_UTC : 2015-12-29 21:06:57
_STATISTICS_TAGS : BPS DURATION NUMBER_OF_FRAMES NUMBER_OF_BYTES
Video
ID : 1
Format : AVC
Format/Info : Advanced Video Codec
Format profile : High@L3.1
Format settings, CABAC : Yes
Format settings, ReFrames : 11 frames
Codec ID : V_MPEG4/ISO/AVC
Duration : 16mn 55s
Bit rate : 2 516 Kbps
Width : 720 pixels
Height : 480 pixels
Display aspect ratio : 3:2
Frame rate mode : Constant
Frame rate : 23.976 fps
Color space : YUV
Chroma subsampling : 4:2:0
Bit depth : 8 bits
Scan type : Progressive
Bits/(Pixel*Frame) : 0.304
Stream size : 304 MiB (91%)
Writing library : x264 core 146 r2538 121396c
Encoding settings : cabac=1 / ref=11 / deblock=1:-2:-2 / analyse=0x3:0x133 / me=umh / subme=9 / psy=1 / psy_rd=1.00:0.00 / mixed_ref=1 / me_range=32 / chroma_me=1 / trellis=1 / 8x8dct=1 / cqm=0 / deadzone=21,11 / fast_pskip=0 / chroma_qp_offset=-2 / threads=6 / lookahead_threads=1 / sliced_threads=0 / nr=0 / decimate=1 / interlaced=0 / bluray_compat=0 / constrained_intra=0 / bframes=8 / b_pyramid=2 / b_adapt=2 / b_bias=0 / direct=1 / weightb=1 / open_gop=0 / weightp=2 / keyint=250 / keyint_min=23 / scenecut=40 / intra_refresh=0 / rc_lookahead=40 / rc=crf / mbtree=1 / crf=21.0 / qcomp=0.65 / qpmin=0 / qpmax=69 / qpstep=4 / ip_ratio=1.40 / aq=3:0.60
Language : German
Default : Yes
Forced : No
Color range : Full
Color primaries : BT.601 PAL
Transfer characteristics : BT.470 System B, BT.470 System G
Matrix coefficients : BT.601
DURATION : 00:16:55.348000000
NUMBER_OF_FRAMES : 24344
NUMBER_OF_BYTES : 326018080
_STATISTICS_WRITING_APP : mkvmerge v8.3.0 ('Over the Horizon') 64bit
_STATISTICS_WRITING_DATE_UTC : 2015-12-29 21:06:57
_STATISTICS_TAGS : BPS DURATION NUMBER_OF_FRAMES NUMBER_OF_BYTES
Audio
ID : 2
Format : AC-3
Format/Info : Audio Coding 3
Mode extension : CM (complete main)
Format settings, Endianness : Big
Codec ID : A_AC3
Duration : 16mn 55s
Bit rate mode : Constant
Bit rate : 192 Kbps
Channel(s) : 2 channels
Channel positions : Front: L R
Sampling rate : 48.0 KHz
Compression mode : Lossy
Stream size : 23.2 MiB (7%)
Title : AC3 | 48 kHz | 2.0, 192 kbps; Оригинал / Немецкий
Language : German
Default : Yes
Forced : No

Скриншоты к ФильмуСкриншоты: Триумф Воли / Triumph des Willens


Скриншоты: Tag der Freiheit! – Unsere Wehrmacht


P.S.: Всех с Наступающим годом 2016 и не будьте такой обезьяной, что нам год сулит. Приятного просмотра!
[teatrix.ru].t12472.torrent 
Торрент: Зарегистрирован [ 2016-01-01 06:15 ] · B182D3DBF097ACCC50DD1D9052FBB88DB53393A3

Скачать .torrent

Скачать

18 KB

Статус: проверено
Скачан: 0 раз
Размер: 3.53 GB
terms.php



Быстрый ответ

Имя:

      
Для отправки сообщений необходимо включить JavaScript
Показать сообщения:    

Текущее время: 09-Дек 10:50

Часовой пояс: UTC + 3


Вы можете начинать темы
Вы можете отвечать на сообщения
Вы не можете редактировать свои сообщения
Вы не можете удалять свои сообщения
Вы не можете голосовать в опросах
Вы не можете прикреплять файлы к сообщениям
Вы можете скачивать файлы