(Classical / Orchestral) Willem Mengelberg: Historical recordings (1926-1940) - Richard Wagner, Engelbert Humperdinck, Richard Strauss, Gustav Mahler (Concertgebouworkest, New York Philharmonic) - 2003, FLAC (tracks+.cue) lossless


 

[Цитировать]

Willem Mengelberg: Historical recordings
(1926–1940)



Richard Wagner | Engelbert Humperdinck | Richard Strauss | Gustav Mahler


Concertgebouworkest Amsterdam
Philharmonic-Symphony Orchestra of New York
Willem Mengelberg conductor


Жанр: Classical / Orchestral
Даты записи: 1926–1940
Формат записи: ADD, Mono
Год издания диска: 2003
Издатель (лейбл): Naxos
Номер по каталогу: 8.110855
Аудиокодек: FLAC
Тип рипа: tracks+.cue
Битрейт аудио: lossless
Продолжительность: 1:10:00
Наличие сканов в содержимом раздачи: да
Источник: What.CD
Релизёр: TheLoo


-
Tracklist / Треклист
Richard Wagner
«Tannhäuser»
Ouvertüre - 13:30
Concertgebouworkest Amsterdam
Recorded: Concertgebouw, Amsterdam, 9 May 1932
«Lohengrin»
Vorspiel zum 1. Aufzug - 8:37
Concertgebouworkest Amsterdam
Recorded: Concertgebouw, Amsterdam, 10 June 1927
«Die Meistersinger von Nürnberg»
Vorspiel zum 1. Aufzug - 9:14
Concertgebouworkest Amsterdam
Recorded: Concertgebouw, Amsterdam, 13 November 1940
«Siegfried»
Waldweben - 8:19
Philharmonic-Symphony Orchestra of New York
Recorded: Carnegie Hall, New York, 14 December 1928
Engelbert Humperdinck
«Hänsel und Gretel»
Vorspiel - 6:33
Philharmonic-Symphony Orchestra of New York
Recorded: Liederkranz Hall, New York, 14 January 1930
Richard Strauss
«Don Juan» (Sinfonische Dichtung), Op. 20 (TrV 156) - 16:39
Concertgebouworkest Amsterdam
Recorded: Concertgebouw, Amsterdam, 8 November 1938
Gustav Mahler
Symphonie Nr. 5 cis-moll
IV. Adagietto - 7:09
Concertgebouworkest Amsterdam
Recorded: Concertgebouw, Amsterdam, May 1926

-

EAC log / Отчёт EAC

Exact Audio Copy V1.0 beta 6 from 9. April 2015
EAC extraction logfile from 26. June 2015, 22:20
Willem Mengelberg & Concertgebouw Orchestra of Amsterdam / Wagner, Strauss, Mahler - Mengelberg
Used drive : TSSTcorpCDDVDW SH-224BB Adapter: 1 ID: 0
Read mode : SecureUtilize accurate stream : YesDefeat audio cache : YesMake use of C2 pointers : No
Read offset correction : 6Overread into Lead-In and Lead-Out : NoFill up missing offset samples with silence : YesDelete leading and trailing silent blocks : NoNull samples used in CRC calculations : YesUsed interface : Native Win32 interface for Win NT & 2000Gap handling : Appended to previous track
Used output format : User Defined EncoderSelected bitrate : 896 kBit/sQuality : HighAdd ID3 tag : NoCommand line compressor : C:\Program Files (x86)\FLAC\flac.exeAdditional command line options : -T "artist=%artist%" -T "title=%title%" -T "album=%albumtitle%" -T "date=%year%" -T "tracknumber=%tracknr%" -T "genre=%genre%" -T "composer=%composer%" -5 %source%
TOC of the extracted CD
Track | Start | Length | Start sector | End sector --------------------------------------------------------- 1 | 0:00.00 | 13:29.57 | 0 | 60731 2 | 13:29.57 | 8:36.55 | 60732 | 99486 3 | 22:06.37 | 9:14.23 | 99487 | 141059 4 | 31:20.60 | 8:18.60 | 141060 | 178469 5 | 39:39.45 | 6:32.67 | 178470 | 207936 6 | 46:12.37 | 16:38.45 | 207937 | 282831 7 | 62:51.07 | 7:08.68 | 282832 | 314999
Track 1
Filename E:\EAC Rips\Wagner, Strauss, Mahler - Mengelberg\01 Tannhäuser, opera, WWV 70- Overture Overture (Dresden version).wav
Pre-gap length 0:00:02.00
Peak level 99.9 % Extraction speed 4.9 X Track quality 99.9 % Test CRC 8770A84B Copy CRC 8770A84B Accurately ripped (confidence 2) [3B7B50D1] (AR v1) Copy OK
Track 2
Filename E:\EAC Rips\Wagner, Strauss, Mahler - Mengelberg\02 Lohengrin, opera, WWV 75- Prelude to Act I.wav
Pre-gap length 0:00:05.25
Peak level 70.1 % Extraction speed 6.2 X Track quality 100.0 % Test CRC F897CDC8 Copy CRC F897CDC8 Accurately ripped (confidence 2) [64117119] (AR v1) Copy OK
Track 3
Filename E:\EAC Rips\Wagner, Strauss, Mahler - Mengelberg\03 Die Meistersinger von Nürnberg, opera, WWV 96- Prelude to Act I.wav
Pre-gap length 0:00:05.37
Peak level 86.3 % Extraction speed 7.0 X Track quality 100.0 % Test CRC EAC216BB Copy CRC EAC216BB Accurately ripped (confidence 2) [21E847D1] (AR v1) Copy OK
Track 4
Filename E:\EAC Rips\Wagner, Strauss, Mahler - Mengelberg\04 Siegfried, opera, WWV 86c- Act II. Forest Mumurs.wav
Pre-gap length 0:00:06.03
Peak level 48.2 % Extraction speed 7.5 X Track quality 100.0 % Test CRC 82DAA1AC Copy CRC 82DAA1AC Accurately ripped (confidence 2) [2B009997] (AR v1) Copy OK
Track 5
Filename E:\EAC Rips\Wagner, Strauss, Mahler - Mengelberg\05 Hänsel und Gretel.wav
Pre-gap length 0:00:05.63
Peak level 73.3 % Extraction speed 7.9 X Track quality 100.0 % Test CRC D33549CB Copy CRC D33549CB Accurately ripped (confidence 2) [48361DC5] (AR v1) Copy OK
Track 6
Filename E:\EAC Rips\Wagner, Strauss, Mahler - Mengelberg\06 Don Juan, tone poem for orchestra, Op. 20 (TrV 156).wav
Pre-gap length 0:00:04.50
Peak level 76.5 % Extraction speed 9.0 X Track quality 100.0 % Test CRC CFB440A8 Copy CRC CFB440A8 Accurately ripped (confidence 2) [CDD2343E] (AR v1) Copy OK
Track 7
Filename E:\EAC Rips\Wagner, Strauss, Mahler - Mengelberg\07 Adagietto, for orchestra (from the Symphony No. 5).wav
Pre-gap length 0:00:05.22
Peak level 35.6 % Extraction speed 9.2 X Track quality 100.0 % Test CRC 915A10A7 Copy CRC 915A10A7 Accurately ripped (confidence 2) [C8B72C92] (AR v1) Copy OK
All tracks accurately ripped
No errors occurred
End of status report
---- CUETools DB Plugin V2.1.6
[CTDB TOCID: CX9i.z4m7JlI734aEWAVqLe907o-] foundSubmit result: CX9i.z4m7JlI734aEWAVqLe907o- has been confirmedTrack | CTDB Status 1 | (2/2) Accurately ripped 2 | (2/2) Accurately ripped 3 | (2/2) Accurately ripped 4 | (2/2) Accurately ripped 5 | (2/2) Accurately ripped 6 | (2/2) Accurately ripped 7 | (2/2) Accurately ripped
==== Log checksum E15D13279146459F929010C9A4435E2F3E7A1077867F33826337A5B487D35617 ====

auCDtect Task Manager log / Отчёт auCDtect Task Manager

-----------------------
DON'T MODIFY THIS FILE
-----------------------
PERFORMER: auCDtect Task Manager, ver. 1.5.1RC3 build 1.5.1.4Copyright (c) 2008-2010 y-soft. All rights reserved
ANALYZER: auCDtect: CD records authenticity detector, version 0.8.2Copyright (c) 2004 Oleg Berngardt. All rights reserved.Copyright (c) 2004 Alexander Djourik. All rights reserved.
FILE: 05 - ''Haensel und Gretel''. Vorspiel.flac Size: 24669128 Hash: BD313C218D337FAC3AAE73C2E7ECA931 Accuracy: -m0 Conclusion: CDDA 100% Signature: 8E84DA5896422BEE1175C2559E225EDB622AB678FILE: 04 - ''Siegfried''. Waldweben.flac Size: 30640787 Hash: ED210376F4EB92835220C79AA7BC101B Accuracy: -m0 Conclusion: CDDA 100% Signature: 9DC601D9AD1B76C85A380DCF18C62F7CA94F3AE2FILE: 03 - ''Die Meistersinger von Nuernberg''. Vorspiel zum 1. Aufzug.flac Size: 36832696 Hash: C3512CC30791CA93427EFC383273F820 Accuracy: -m0 Conclusion: CDDA 100% Signature: 2B52C67D787C5390EE286971E16BE9200EDE41ECFILE: 02 - ''Lohengrin''. Vorspiel zum 1. Aufzug.flac Size: 31740508 Hash: 6D3062A4AADE30AC4350833A4E801768 Accuracy: -m0 Conclusion: CDDA 100% Signature: EDDE6566C3EEC05E717EE374D3EAA3E096209897FILE: 01 - ''Tannhaeuser''. Ouvertuere.flac Size: 49882309 Hash: 9ADD8C864ACBDE0B2459D537732F5031 Accuracy: -m0 Conclusion: CDDA 99% Signature: DDB8AA73CD5845E3D1FA6DA87078ADF5D8F08A95FILE: 07 - Symphonie Nr. 5 cis-moll. IV. Adagietto.flac Size: 26160131 Hash: A5DE865EB237507AB6B2F8BA49CCC65A Accuracy: -m0 Conclusion: CDDA 100% Signature: 629763CDAFE00D1160D1FE938EEC8EFFF896FEEBFILE: 06 - ''Don Juan'' (Sinfonische Dichtung), Op. 20 (TrV 156).flac Size: 62930411 Hash: 01A60167DB501A41B22FD2777C641F8C Accuracy: -m0 Conclusion: CDDA 100% Signature: C2E49480CA955A6367A803D5447F8FDB4F9CF66A

CUETools log / Отчёт CUETools

[CUETools log; Date: 30.12.2015 18:16:05; Version: 2.1.4][AccurateRip ID: 00139d8e-0074551a-63106807] found.Track [ CRC | V2 ] Status 01 [3b7b50d1|46ba07a0] (2+0/2) Accurately ripped 02 [64117119|bb93c64c] (2+0/2) Accurately ripped 03 [21e847d1|24a20da7] (2+0/2) Accurately ripped 04 [2b009997|fae3c4c4] (2+0/2) Accurately ripped 05 [48361dc5|20ecb3b2] (2+0/2) Accurately ripped 06 [cdd2343e|8aa8f21b] (2+0/2) Accurately ripped 07 [c8b72c92|78183213] (2+0/2) Accurately ripped
Track Peak [ CRC32 ] [W/O NULL] [ LOG ] -- 99,9 [46015DC4] [6BE230E5] 01 99,9 [8770A84B] [1C205DF1] CRC32 02 70,1 [F897CDC8] [0C3ACD69] CRC32 03 86,3 [EAC216BB] [BE852180] CRC32 04 48,2 [82DAA1AC] [C0FC53B0] CRC32 05 73,3 [D33549CB] [3C01AC9D] CRC32 06 76,5 [CFB440A8] [B1668F36] CRC32 07 35,6 [915A10A7] [A18F3CC4] CRC32

CUE sheet

TITLE "Willem Mengelberg: Historical recordings (1926–1940)"PERFORMER "Willem Mengelberg"REM GENRE ClassicalREM DISCID 63106807REM COMMENT "ExactAudioCopy v1.0b6"FILE "01 - ''Tannhaeuser''. Ouvertuere.flac" WAVE TRACK 01 AUDIO TITLE "«Tannhäuser»: Ouvertüre" PERFORMER "Concertgebouworkest Amsterdam. Willem Mengelberg, conductor" REM DATE 1932 INDEX 01 00:00:00 TRACK 02 AUDIO TITLE "«Lohengrin»: Vorspiel zum 1. Aufzug" PERFORMER "Concertgebouworkest Amsterdam. Willem Mengelberg, conductor" REM DATE 1927 INDEX 00 13:24:32FILE "02 - ''Lohengrin''. Vorspiel zum 1. Aufzug.flac" WAVE INDEX 01 00:00:00 TRACK 03 AUDIO TITLE "«Die Meistersinger von Nürnberg»: Vorspiel zum 1. Aufzug" PERFORMER "Concertgebouworkest Amsterdam. Willem Mengelberg, conductor" REM DATE 1940 INDEX 00 08:31:18FILE "03 - ''Die Meistersinger von Nuernberg''. Vorspiel zum 1. Aufzug.flac" WAVE INDEX 01 00:00:00 TRACK 04 AUDIO TITLE "«Siegfried»: Waldweben" PERFORMER "Philharmonic-Symphony Orchestra of New York. Willem Mengelberg, conductor" REM DATE 1928 INDEX 00 09:08:20FILE "04 - ''Siegfried''. Waldweben.flac" WAVE INDEX 01 00:00:00 TRACK 05 AUDIO TITLE "«Hänsel und Gretel»: Vorspiel" PERFORMER "Philharmonic-Symphony Orchestra of New York. Willem Mengelberg, conductor" REM DATE 1930 INDEX 00 08:12:72FILE "05 - ''Haensel und Gretel''. Vorspiel.flac" WAVE INDEX 01 00:00:00 TRACK 06 AUDIO TITLE "«Don Juan» (Sinfonische Dichtung), Op. 20 (TrV 156)" PERFORMER "Concertgebouworkest Amsterdam. Willem Mengelberg, conductor" REM DATE 1938 INDEX 00 06:28:17FILE "06 - ''Don Juan'' (Sinfonische Dichtung), Op. 20 (TrV 156).flac" WAVE INDEX 01 00:00:00 TRACK 07 AUDIO TITLE "Symphonie Nr. 5 cis-moll: IV. Adagietto" PERFORMER "Concertgebouworkest Amsterdam. Willem Mengelberg, conductor" REM DATE 1926 INDEX 00 16:33:23FILE "07 - Symphonie Nr. 5 cis-moll. IV. Adagietto.flac" WAVE INDEX 01 00:00:00



Показать сообщения:    

Текущее время: 07-Дек 15:28

Часовой пояс: UTC + 3


Вы не можете начинать темы
Вы не можете отвечать на сообщения
Вы не можете редактировать свои сообщения
Вы не можете удалять свои сообщения
Вы не можете голосовать в опросах
Вы не можете прикреплять файлы к сообщениям
Вы не можете скачивать файлы