(Classical) Jean-Louis Duport - Etudes for Cello Solo - Alessandro Andriani, Simone Ceppetelli - 2013, FLAC (image+.cue) lossless


 

[Цитировать]

Jean-Louis Duport - Etudes for Cello Solo - Alessandro Andriani, Simone Ceppetelli
Жанр: Classical
Год издания диска: 2013
Издатель (лейбл): Brilliant Classics
Номер по каталогу: 94725
Дата записи: 2013
Аудиокодек: FLAC
Тип рипа: image+.cue
Битрейт аудио: lossless
Продолжительность: 122:38
Источник: собственный рип
Наличие сканов в содержимом раздачи: да
Треклист:
Jean-Louis Duport (1749-1819)
Etudes for Cello Solo
CD1
[1]-[11] Etudes Nos. 1-11
CD2
[1]-[10] Etudes Nos. 12-21
Исполнители:
Alessandro Andriani cello
Simone Ceppetelli cello continuo

Лог создания рипа: CD1

Exact Audio Copy V1.0 beta 3 from 29. August 2011
EAC extraction logfile from 21. April 2015, 1:06
Alessandro Andriani, Simone Ceppetelli / Duport - Etudes for Cello Solo - CD1
Used drive : HL-DT-STDVDRAM GU70N Adapter: 0 ID: 0
Read mode : SecureUtilize accurate stream : YesDefeat audio cache : YesMake use of C2 pointers : No
Read offset correction : 48Overread into Lead-In and Lead-Out : NoFill up missing offset samples with silence : YesDelete leading and trailing silent blocks : NoNull samples used in CRC calculations : YesUsed interface : Native Win32 interface for Win NT & 2000
Used output format : User Defined EncoderSelected bitrate : 128 kBit/sQuality : HighAdd ID3 tag : NoCommand line compressor : C:\Program Files (x86)\Exact Audio Copy\Flac\flac.exeAdditional command line options : -V -8 -T "Date=%year%" -T "Genre=%genre%" %source%
TOC of the extracted CD
Track | Start | Length | Start sector | End sector --------------------------------------------------------- 1 | 0:00.00 | 9:01.31 | 0 | 40605 2 | 9:01.31 | 5:43.71 | 40606 | 66401 3 | 14:45.27 | 2:31.49 | 66402 | 77775 4 | 17:17.01 | 2:02.10 | 77776 | 86935 5 | 19:19.11 | 1:22.46 | 86936 | 93131 6 | 20:41.57 | 3:17.44 | 93132 | 107950 7 | 23:59.26 | 1:31.13 | 107951 | 114788 8 | 25:30.39 | 5:51.37 | 114789 | 141150 9 | 31:22.01 | 11:52.21 | 141151 | 194571 10 | 43:14.22 | 4:12.06 | 194572 | 213477 11 | 47:26.28 | 5:10.44 | 213478 | 236771
Range status and errors
Selected range
Filename C:\temp\Duport - Etudes for Cello Solo\CD1\Duport - Etudes for Cello Solo - CD1.wav
Peak level 71.8 % Extraction speed 2.0 X Range quality 99.9 % Test CRC 0182E65E Copy CRC 0182E65E Copy OK
No errors occurred
AccurateRip summary
Track 1 not present in databaseTrack 2 not present in databaseTrack 3 not present in databaseTrack 4 not present in databaseTrack 5 not present in databaseTrack 6 not present in databaseTrack 7 not present in databaseTrack 8 not present in databaseTrack 9 not present in databaseTrack 10 not present in databaseTrack 11 not present in database
None of the tracks are present in the AccurateRip database
End of status report
==== Log checksum 7EAE930BD7E95444128E118F38F0E97C8C17DA21D460E5982A8A066516A74018 ====

Лог создания рипа: CD2

Exact Audio Copy V1.0 beta 3 from 29. August 2011
EAC extraction logfile from 22. April 2015, 0:52
Alessandro Andriani, Simone Ceppetelli / Duport - Etudes for Cello Solo - CD2
Used drive : HL-DT-STDVDRAM GU70N Adapter: 0 ID: 0
Read mode : SecureUtilize accurate stream : YesDefeat audio cache : YesMake use of C2 pointers : No
Read offset correction : 48Overread into Lead-In and Lead-Out : NoFill up missing offset samples with silence : YesDelete leading and trailing silent blocks : NoNull samples used in CRC calculations : YesUsed interface : Native Win32 interface for Win NT & 2000
Used output format : User Defined EncoderSelected bitrate : 128 kBit/sQuality : HighAdd ID3 tag : NoCommand line compressor : C:\Program Files (x86)\Exact Audio Copy\Flac\flac.exeAdditional command line options : -V -8 -T "Date=%year%" -T "Genre=%genre%" %source%
TOC of the extracted CD
Track | Start | Length | Start sector | End sector --------------------------------------------------------- 1 | 0:00.00 | 11:48.51 | 0 | 53150 2 | 11:48.51 | 5:02.07 | 53151 | 75807 3 | 16:50.58 | 4:14.43 | 75808 | 94900 4 | 21:05.26 | 8:22.06 | 94901 | 132556 5 | 29:27.32 | 7:06.41 | 132557 | 164547 6 | 36:33.73 | 9:56.16 | 164548 | 209263 7 | 46:30.14 | 7:52.20 | 209264 | 244683 8 | 54:22.34 | 1:34.64 | 244684 | 251797 9 | 55:57.23 | 6:28.29 | 251798 | 280926 10 | 62:25.52 | 7:37.15 | 280927 | 315216
Range status and errors
Selected range
Filename C:\temp\Duport - Etudes for Cello Solo\CD2\Duport - Etudes for Cello Solo - CD2.wav
Peak level 62.9 % Extraction speed 2.1 X Range quality 99.9 % Test CRC 82D7DA31 Copy CRC 82D7DA31 Copy OK
No errors occurred
AccurateRip summary
Track 1 not present in databaseTrack 2 not present in databaseTrack 3 not present in databaseTrack 4 not present in databaseTrack 5 not present in databaseTrack 6 not present in databaseTrack 7 not present in databaseTrack 8 not present in databaseTrack 9 not present in databaseTrack 10 not present in database
None of the tracks are present in the AccurateRip database
End of status report
==== Log checksum EA433B6CC1F30DC44F8AF30ACDC11068FCFE4896A5D8B0AABACCBFEB91ADD40B ====



Показать сообщения:    

Текущее время: 10-Дек 21:28

Часовой пояс: UTC + 3


Вы не можете начинать темы
Вы не можете отвечать на сообщения
Вы не можете редактировать свои сообщения
Вы не можете удалять свои сообщения
Вы не можете голосовать в опросах
Вы не можете прикреплять файлы к сообщениям
Вы не можете скачивать файлы