(Score) Вечный мир / An Everlasting Piece (by Hans Zimmer & Hans Zimmer & The Jigs) - 2000, FLAC (tracks+.cue), lossless


Статистика раздачи [Обновить пиров]
Размер:  262 MB   |    Зарегистрирован:  11 месяцев 4 дня   |    Скачан:  0 раз

Полного источника не было: Никогда

 
   
 
 
 

[Цитировать]

Вечный мир / An Everlasting Piece-Жанр: Score
Композитор: Hans Zimmer
Год выпуска диска: 2000
Производитель диска: P&O, Germany
Издатель (лейбл): Varèse Sarabande
Номер по каталогу: VSD 6202-Аудиокодек: FLAC (*.flac)
Тип рипа: tracks+.cue
Битрейт аудио: lossless
Продолжительность: 00:41:53
Источник: собственный рип
Наличие сканов в содержимом раздачи: да, 600 dpi-Ссылки: Кинопоиск | IMDB | Wikipedia | SoundtrackCollector
MP3: (Score) Вечный мир / An Everlasting Piece (by Hans Zimmer & Hans Zimmer & The Jigs) - 2000, MP3 (tracks) 320 kbps

Треклист

01. Repo Man [0:03:57.02]
02. The Demon Barber of Dublin [0:00:55.33]
03. One Hundred and Ninety [0:03:52.57]
04. Day Job [0:02:08.63]
05. You Gotta Lose to Win [0:02:23.22]
06. Toupée or Not Toupée [0:02:18.03]
07. The Rant [0:01:08.52]
08. Glass Slipper [0:00:46.60]
09. I'm a Dick [0:02:12.25]
10. It Takes a Woman [0:02:05.03]
11. The Piecemaker [0:01:25.45]
12. Piece on Earth [0:01:54.07]
13. The Piece People [0:01:31.33]
14. F**kin' Genius [0:04:59.02]
15. Piece Offering [0:06:05.30]
16. Jiggy's Last Jam [0:04:09.53]

Лог создания рипа

Exact Audio Copy V1.1 from 23. June 2015
EAC extraction logfile from 10. October 2015, 22:41
Hans Zimmer & The Jigs / An Everlasting Piece
Used drive : PLEXTOR CD-R PX-230A Adapter: 1 ID: 2
Read mode : SecureUtilize accurate stream : YesDefeat audio cache : YesMake use of C2 pointers : No
Read offset correction : 738Overread into Lead-In and Lead-Out : NoFill up missing offset samples with silence : YesDelete leading and trailing silent blocks : NoNull samples used in CRC calculations : YesUsed interface : Native Win32 interface for Win NT & 2000Gap handling : Appended to previous track
Used output format : User Defined EncoderSelected bitrate : 1024 kBit/sQuality : HighAdd ID3 tag : NoCommand line compressor : C:\Program Files (x86)\Exact Audio Copy\FLAC\FLAC.EXEAdditional command line options : -6 -V -T "ARTIST=%artist%" -T "TITLE=%title%" -T "ALBUM=%albumtitle%" -T "DATE=%year%"-T "TRACKNUMBER=%tracknr%" -T "GENRE=%genre%" -T "COMMENT=%comment%" -T "ALBUMARTIST=%albuminterpret%" -T "COMPOSER=%composer%"-T "DISCNUMBER=%cdnumber%" -T "TOTALDISCS=%totalcds%" -T "TOTALTRACKS=%numtracks%" %source% -o %dest%
TOC of the extracted CD
Track | Start | Length | Start sector | End sector --------------------------------------------------------- 1 | 0:00.00 | 3:57.02 | 0 | 17776 2 | 3:57.02 | 0:55.33 | 17777 | 21934 3 | 4:52.35 | 3:52.57 | 21935 | 39391 4 | 8:45.17 | 2:08.63 | 39392 | 49054 5 | 10:54.05 | 2:23.22 | 49055 | 59801 6 | 13:17.27 | 2:18.03 | 59802 | 70154 7 | 15:35.30 | 1:08.52 | 70155 | 75306 8 | 16:44.07 | 0:46.60 | 75307 | 78816 9 | 17:30.67 | 2:12.25 | 78817 | 88741 10 | 19:43.17 | 2:05.03 | 88742 | 98119 11 | 21:48.20 | 1:25.45 | 98120 | 104539 12 | 23:13.65 | 1:54.07 | 104540 | 113096 13 | 25:07.72 | 1:31.33 | 113097 | 119954 14 | 26:39.30 | 4:59.02 | 119955 | 142381 15 | 31:38.32 | 6:05.30 | 142382 | 169786 16 | 37:43.62 | 4:09.53 | 169787 | 188514
Track 1
Filename C:\Music\01 - Hans Zimmer & The Jigs - Repo Man.wav
Pre-gap length 0:00:02.00
Peak level 100.0 % Extraction speed 6.3 X Track quality 99.9 % Test CRC 07AE5126 Copy CRC 07AE5126 Accurately ripped (confidence 2) [3BB04843] (AR v1) Copy OK
Track 2
Filename C:\Music\02 - Hans Zimmer & The Jigs - The Demon Barber of Dublin.wav
Pre-gap length 0:00:02.42
Peak level 97.0 % Extraction speed 3.7 X Track quality 99.8 % Test CRC 9C775D93 Copy CRC 9C775D93 Accurately ripped (confidence 2) [0F4E43CF] (AR v1) Copy OK
Track 3
Filename C:\Music\03 - Hans Zimmer & The Jigs - One Hundred and Ninety.wav
Peak level 95.8 % Extraction speed 6.7 X Track quality 99.9 % Test CRC C9EA8FB9 Copy CRC C9EA8FB9 Accurately ripped (confidence 2) [4792782B] (AR v1) Copy OK
Track 4
Filename C:\Music\04 - Hans Zimmer & The Jigs - Day Job.wav
Peak level 100.0 % Extraction speed 7.5 X Track quality 100.0 % Test CRC BD4119C0 Copy CRC BD4119C0 Accurately ripped (confidence 2) [0947AC25] (AR v1) Copy OK
Track 5
Filename C:\Music\05 - Hans Zimmer & The Jigs - You Gotta Lose to Win.wav
Pre-gap length 0:00:01.03
Peak level 100.0 % Extraction speed 7.9 X Track quality 100.0 % Test CRC EA4D66C8 Copy CRC EA4D66C8 Accurately ripped (confidence 2) [125C438B] (AR v1) Copy OK
Track 6
Filename C:\Music\06 - Hans Zimmer & The Jigs - Toupée or Not Toupée.wav
Peak level 100.0 % Extraction speed 7.8 X Track quality 100.0 % Test CRC C5808C9F Copy CRC C5808C9F Accurately ripped (confidence 2) [AB01FB6D] (AR v1) Copy OK
Track 7
Filename C:\Music\07 - Hans Zimmer & The Jigs - The Rant.wav
Peak level 83.2 % Extraction speed 4.8 X Track quality 99.8 % Test CRC AAC6EC71 Copy CRC AAC6EC71 Accurately ripped (confidence 2) [660A2191] (AR v1) Copy OK
Track 8
Filename C:\Music\08 - Hans Zimmer & The Jigs - Glass Slipper.wav
Pre-gap length 0:00:01.02
Peak level 100.0 % Extraction speed 4.0 X Track quality 99.7 % Test CRC FA426619 Copy CRC FA426619 Accurately ripped (confidence 2) [9B0B6116] (AR v1) Copy OK
Track 9
Filename C:\Music\09 - Hans Zimmer & The Jigs - I'm a Dick.wav
Peak level 53.6 % Extraction speed 8.6 X Track quality 100.0 % Test CRC 83F96230 Copy CRC 83F96230 Accurately ripped (confidence 2) [8D5CC853] (AR v1) Copy OK
Track 10
Filename C:\Music\10 - Hans Zimmer & The Jigs - It Takes a Woman.wav
Peak level 100.0 % Extraction speed 8.1 X Track quality 100.0 % Test CRC 3A4BBC10 Copy CRC 3A4BBC10 Accurately ripped (confidence 2) [0FD0D0F7] (AR v1) Copy OK
Track 11
Filename C:\Music\11 - Hans Zimmer & The Jigs - The Piecemaker.wav
Peak level 100.0 % Extraction speed 7.0 X Track quality 100.0 % Test CRC 603EB41C Copy CRC 603EB41C Accurately ripped (confidence 2) [28CCBCB4] (AR v1) Copy OK
Track 12
Filename C:\Music\12 - Hans Zimmer & The Jigs - Piece on Earth.wav
Peak level 51.4 % Extraction speed 8.1 X Track quality 100.0 % Test CRC 53AE31D8 Copy CRC 53AE31D8 Accurately ripped (confidence 2) [0661C58F] (AR v1) Copy OK
Track 13
Filename C:\Music\13 - Hans Zimmer & The Jigs - The Piece People.wav
Pre-gap length 0:00:01.20
Peak level 98.8 % Extraction speed 7.9 X Track quality 100.0 % Test CRC 4A509724 Copy CRC 4A509724 Accurately ripped (confidence 2) [820030E9] (AR v1) Copy OK
Track 14
Filename C:\Music\14 - Hans Zimmer & The Jigs - Fxxkin' Genius.wav
Peak level 98.8 % Extraction speed 9.3 X Track quality 100.0 % Test CRC A185E4DA Copy CRC A185E4DA Accurately ripped (confidence 2) [12BAAA61] (AR v1) Copy OK
Track 15
Filename C:\Music\15 - Hans Zimmer & The Jigs - Piece Offering.wav
Peak level 98.8 % Extraction speed 9.8 X Track quality 100.0 % Test CRC F8DB0072 Copy CRC F8DB0072 Accurately ripped (confidence 2) [81F55005] (AR v1) Copy OK
Track 16
Filename C:\Music\16 - Hans Zimmer & The Jigs - Jiggy's Last Jam.wav
Pre-gap length 0:00:01.42
Peak level 98.8 % Extraction speed 8.1 X Track quality 99.9 % Test CRC 06BFFC0A Copy CRC 06BFFC0A Accurately ripped (confidence 2) [1692C956] (AR v1) Copy OK
All tracks accurately ripped
No errors occurred
End of status report
---- CUETools DB Plugin V2.1.6
[CTDB TOCID: _bMFHeLGqLWmwPiHZRkrI518D64-] foundSubmit result: _bMFHeLGqLWmwPiHZRkrI518D64- has been confirmedTrack | CTDB Status 1 | (2/2) Accurately ripped 2 | (2/2) Accurately ripped 3 | (2/2) Accurately ripped 4 | (2/2) Accurately ripped 5 | (2/2) Accurately ripped 6 | (2/2) Accurately ripped 7 | (2/2) Accurately ripped 8 | (2/2) Accurately ripped 9 | (2/2) Accurately ripped 10 | (2/2) Accurately ripped 11 | (2/2) Accurately ripped 12 | (2/2) Accurately ripped 13 | (2/2) Accurately ripped 14 | (2/2) Accurately ripped 15 | (2/2) Accurately ripped 16 | (2/2) Accurately ripped
==== Log checksum F3007AFFA35C96CC99D17EC5AAF09F7FD80095783CB6D6F948B224D2983387FE ====

Содержание индексной карты (.CUE)

REM GENRE SoundtrackREM DATE 2000REM DISCID CF09D110REM COMMENT "ExactAudioCopy v1.1"PERFORMER "Hans Zimmer & The Jigs"TITLE "An Everlasting Piece"FILE "01 - Hans Zimmer & The Jigs - Repo Man.wav" WAVE TRACK 01 AUDIO TITLE "Repo Man" PERFORMER "Hans Zimmer & The Jigs" INDEX 01 00:00:00 TRACK 02 AUDIO TITLE "The Demon Barber of Dublin" PERFORMER "Hans Zimmer & The Jigs" INDEX 00 03:54:35FILE "02 - Hans Zimmer & The Jigs - The Demon Barber of Dublin.wav" WAVE INDEX 01 00:00:00FILE "03 - Hans Zimmer & The Jigs - One Hundred and Ninety.wav" WAVE TRACK 03 AUDIO TITLE "One Hundred and Ninety" PERFORMER "Hans Zimmer & The Jigs" INDEX 01 00:00:00FILE "04 - Hans Zimmer & The Jigs - Day Job.wav" WAVE TRACK 04 AUDIO TITLE "Day Job" PERFORMER "Hans Zimmer & The Jigs" INDEX 01 00:00:00 TRACK 05 AUDIO TITLE "You Gotta Lose to Win" PERFORMER "Hans Zimmer & The Jigs" INDEX 00 02:07:60FILE "05 - Hans Zimmer & The Jigs - You Gotta Lose to Win.wav" WAVE INDEX 01 00:00:00FILE "06 - Hans Zimmer & The Jigs - Toupee or Not Toupee.wav" WAVE TRACK 06 AUDIO TITLE "Toupee or Not Toupee" PERFORMER "Hans Zimmer & The Jigs" INDEX 01 00:00:00FILE "07 - Hans Zimmer & The Jigs - The Rant.wav" WAVE TRACK 07 AUDIO TITLE "The Rant" PERFORMER "Hans Zimmer & The Jigs" INDEX 01 00:00:00 TRACK 08 AUDIO TITLE "Glass Slipper" PERFORMER "Hans Zimmer & The Jigs" INDEX 00 01:07:50FILE "08 - Hans Zimmer & The Jigs - Glass Slipper.wav" WAVE INDEX 01 00:00:00FILE "09 - Hans Zimmer & The Jigs - I'm a Dick.wav" WAVE TRACK 09 AUDIO TITLE "I'm a Dick" PERFORMER "Hans Zimmer & The Jigs" INDEX 01 00:00:00FILE "10 - Hans Zimmer & The Jigs - It Takes a Woman.wav" WAVE TRACK 10 AUDIO TITLE "It Takes a Woman" PERFORMER "Hans Zimmer & The Jigs" INDEX 01 00:00:00FILE "11 - Hans Zimmer & The Jigs - The Piecemaker.wav" WAVE TRACK 11 AUDIO TITLE "The Piecemaker" PERFORMER "Hans Zimmer & The Jigs" INDEX 01 00:00:00FILE "12 - Hans Zimmer & The Jigs - Piece on Earth.wav" WAVE TRACK 12 AUDIO TITLE "Piece on Earth" PERFORMER "Hans Zimmer & The Jigs" INDEX 01 00:00:00 TRACK 13 AUDIO TITLE "The Piece People" PERFORMER "Hans Zimmer & The Jigs" INDEX 00 01:52:62FILE "13 - Hans Zimmer & The Jigs - The Piece People.wav" WAVE INDEX 01 00:00:00FILE "14 - Hans Zimmer & The Jigs - Fxxkin' Genius.wav" WAVE TRACK 14 AUDIO TITLE "F**kin' Genius" PERFORMER "Hans Zimmer & The Jigs" INDEX 01 00:00:00FILE "15 - Hans Zimmer & The Jigs - Piece Offering.wav" WAVE TRACK 15 AUDIO TITLE "Piece Offering" PERFORMER "Hans Zimmer & The Jigs" INDEX 01 00:00:00 TRACK 16 AUDIO TITLE "Jiggy's Last Jam" PERFORMER "Hans Zimmer & The Jigs" INDEX 00 06:03:63FILE "16 - Hans Zimmer & The Jigs - Jiggy's Last Jam.wav" WAVE INDEX 01 00:00:00
[teatrix.ru].t12478.torrent 
Торрент: Зарегистрирован [ 2016-01-01 06:15 ] · 134EC17B0AFAA0449356C4322BD908DCA96E9C0A

Скачать .torrent

Скачать

23 KB

Статус: проверено
Скачан: 0 раз
Размер: 262 MB
terms.php



Быстрый ответ

Имя:

      
Для отправки сообщений необходимо включить JavaScript
Показать сообщения:    

Текущее время: 05-Дек 13:25

Часовой пояс: UTC + 3


Вы можете начинать темы
Вы можете отвечать на сообщения
Вы не можете редактировать свои сообщения
Вы не можете удалять свои сообщения
Вы не можете голосовать в опросах
Вы не можете прикреплять файлы к сообщениям
Вы можете скачивать файлы