(Score) В поле зрения - Сезон 1 / Person of Interest - Season 1 (by Ramin Djawadi) - 2012, FLAC (tracks+.cue), lossless


Статистика раздачи [Обновить пиров]
Размер:  293 MB   |    Зарегистрирован:  11 месяцев 9 дней   |    Скачан:  0 раз

Полного источника не было: Никогда

Личеров:  3  [  0 KB/s  ]   Подробная статистика пиров
 
   
 
 
 

[Цитировать]

В поле зрения - Сезон 1 / Person of Interest - Season 1-Жанр: Score
Композитор: Ramin Djawadi
Год выпуска диска: 2012
Производитель диска: Warner Music, Germany
Издатель (лейбл): Varèse Sarabande
Номер по каталогу: VSD 7164-Аудиокодек: FLAC (*.flac)
Тип рипа: tracks+.cue
Битрейт аудио: lossless
Продолжительность: 00:46:10
Источник: собственный рип
Наличие сканов в содержимом раздачи: да, 600dpi-Ссылки: Кинопоиск | IMDB | Wikipedia | SoundtrackCollector

Треклист

01. Person Of Interest (Written by J.J. Abrams) [0:00:54.11]
02. Watching With Ten Thousand Eyes [0:03:11.49]
03. Angel Of Death [0:02:16.57]
04. Man In A Suit [0:01:59.29]
05. Do People Change? [0:02:24.43]
06. Have A Nice Day [0:00:46.22]
07. Elias [0:02:38.69]
08. Second Chance [0:02:53.54]
09. Knock Knock [0:01:39.15]
10. Root Of All Evil [0:03:27.03]
11. Mr. Reese [0:02:47.05]
12. Detective Carter [0:01:40.33]
13. Save Everybody [0:02:22.63]
14. Do You Have Your Vest On Officer? [0:01:18.21]
15. Apologies [0:01:58.38]
16. Concerned 3rd Party [0:03:03.05]
17. Irrelevant List [0:01:39.27]
18. Behind Enemy Lines [0:01:59.39]
19. Aid Of An Old Friend [0:01:25.12]
20. A Bored Rich Guy [0:02:23.69]
21. Listening With A Million Ears [0:03:20.23]

Лог создания рипа

Exact Audio Copy V1.0 beta 3 from 29. August 2011
EAC extraction logfile from 2. November 2012, 13:16
Ramin Djawadi / Person Of Interest
Used drive : TSSTcorpCD/DVDW SH-S182M Adapter: 0 ID: 0
Read mode : SecureUtilize accurate stream : YesDefeat audio cache : YesMake use of C2 pointers : No
Read offset correction : 6Overread into Lead-In and Lead-Out : NoFill up missing offset samples with silence : YesDelete leading and trailing silent blocks : NoNull samples used in CRC calculations : YesUsed interface : Native Win32 interface for Win NT & 2000Gap handling : Appended to previous track
Used output format : User Defined EncoderSelected bitrate : 1024 kBit/sQuality : HighAdd ID3 tag : NoCommand line compressor : C:\Program Files\Exact Audio Copy\Flac\flac.exeAdditional command line options : -8 -V -T "ARTIST=%artist%" -T "TITLE=%title%" -T "ALBUM=%albumtitle%" -T "DATE=%year%"-T "TRACKNUMBER=%tracknr%" -T "GENRE=%genre%" -T "PERFORMER=%albuminterpret%" -T "COMPOSER=%composer%" %source% -o %dest%
TOC of the extracted CD
Track | Start | Length | Start sector | End sector --------------------------------------------------------- 1 | 0:00.00 | 0:54.11 | 0 | 4060 2 | 0:54.11 | 3:11.49 | 4061 | 18434 3 | 4:05.60 | 2:16.57 | 18435 | 28691 4 | 6:22.42 | 1:59.29 | 28692 | 37645 5 | 8:21.71 | 2:24.43 | 37646 | 48488 6 | 10:46.39 | 0:46.22 | 48489 | 51960 7 | 11:32.61 | 2:38.69 | 51961 | 63879 8 | 14:11.55 | 2:53.54 | 63880 | 76908 9 | 17:05.34 | 1:39.15 | 76909 | 84348 10 | 18:44.49 | 3:27.03 | 84349 | 99876 11 | 22:11.52 | 2:47.05 | 99877 | 112406 12 | 24:58.57 | 1:40.33 | 112407 | 119939 13 | 26:39.15 | 2:22.63 | 119940 | 130652 14 | 29:02.03 | 1:18.21 | 130653 | 136523 15 | 30:20.24 | 1:58.38 | 136524 | 145411 16 | 32:18.62 | 3:03.05 | 145412 | 159141 17 | 35:21.67 | 1:39.27 | 159142 | 166593 18 | 37:01.19 | 1:59.39 | 166594 | 175557 19 | 39:00.58 | 1:25.12 | 175558 | 181944 20 | 40:25.70 | 2:23.69 | 181945 | 192738 21 | 42:49.64 | 3:20.23 | 192739 | 207761
Track 1
Filename C:\Music\01 - Person Of Interest.wav
Pre-gap length 0:00:02.00
Peak level 83.9 % Extraction speed 2.9 X Track quality 100.0 % Test CRC 170798C6 Copy CRC 170798C6 Track not present in AccurateRip database Copy OK
Track 2
Filename C:\Music\02 - Watching With Ten Thousand Eyes.wav
Pre-gap length 0:00:01.00
Peak level 94.4 % Extraction speed 4.4 X Track quality 100.0 % Test CRC 352FBEFD Copy CRC 352FBEFD Track not present in AccurateRip database Copy OK
Track 3
Filename C:\Music\03 - Angel Of Death.wav
Pre-gap length 0:00:01.00
Peak level 94.4 % Extraction speed 3.7 X Track quality 99.9 % Test CRC 611400CE Copy CRC 611400CE Track not present in AccurateRip database Copy OK
Track 4
Filename C:\Music\04 - Man In A Suit.wav
Pre-gap length 0:00:01.00
Peak level 94.4 % Extraction speed 4.5 X Track quality 100.0 % Test CRC 3472A9F0 Copy CRC 3472A9F0 Track not present in AccurateRip database Copy OK
Track 5
Filename C:\Music\05 - Do People Change.wav
Pre-gap length 0:00:01.00
Peak level 94.4 % Extraction speed 4.9 X Track quality 100.0 % Test CRC E0400EDC Copy CRC E0400EDC Track not present in AccurateRip database Copy OK
Track 6
Filename C:\Music\06 - Have A Nice Day.wav
Pre-gap length 0:00:01.00
Peak level 85.9 % Extraction speed 3.5 X Track quality 100.0 % Test CRC 62852484 Copy CRC 62852484 Track not present in AccurateRip database Copy OK
Track 7
Filename C:\Music\07 - Elias.wav
Pre-gap length 0:00:01.00
Peak level 94.4 % Extraction speed 5.3 X Track quality 100.0 % Test CRC 762817AD Copy CRC 762817AD Track not present in AccurateRip database Copy OK
Track 8
Filename C:\Music\08 - Second Chance.wav
Pre-gap length 0:00:01.00
Peak level 90.9 % Extraction speed 5.5 X Track quality 100.0 % Test CRC C847143F Copy CRC C847143F Track not present in AccurateRip database Copy OK
Track 9
Filename C:\Music\09 - Knock Knock.wav
Pre-gap length 0:00:01.00
Peak level 94.4 % Extraction speed 5.1 X Track quality 100.0 % Test CRC 8BD287AB Copy CRC 8BD287AB Track not present in AccurateRip database Copy OK
Track 10
Filename C:\Music\10 - Root Of All Evil.wav
Pre-gap length 0:00:01.00
Peak level 94.5 % Extraction speed 6.1 X Track quality 100.0 % Test CRC C0017C04 Copy CRC C0017C04 Track not present in AccurateRip database Copy OK
Track 11
Filename C:\Music\11 - Mr. Reese.wav
Pre-gap length 0:00:01.00
Peak level 71.5 % Extraction speed 6.1 X Track quality 100.0 % Test CRC D1079839 Copy CRC D1079839 Track not present in AccurateRip database Copy OK
Track 12
Filename C:\Music\12 - Detective Carter.wav
Pre-gap length 0:00:01.00
Peak level 72.4 % Extraction speed 5.5 X Track quality 100.0 % Test CRC 86DC1F94 Copy CRC 86DC1F94 Track not present in AccurateRip database Copy OK
Track 13
Filename C:\Music\13 - Save Everybody.wav
Pre-gap length 0:00:01.00
Peak level 94.4 % Extraction speed 6.2 X Track quality 100.0 % Test CRC 7E8C7203 Copy CRC 7E8C7203 Track not present in AccurateRip database Copy OK
Track 14
Filename C:\Music\14 - Do You Have Your Vest On Officer.wav
Pre-gap length 0:00:01.00
Peak level 94.4 % Extraction speed 5.4 X Track quality 100.0 % Test CRC 86B77447 Copy CRC 86B77447 Track not present in AccurateRip database Copy OK
Track 15
Filename C:\Music\15 - Apologies.wav
Pre-gap length 0:00:01.00
Peak level 89.8 % Extraction speed 5.0 X Track quality 99.9 % Test CRC 9587D869 Copy CRC 9587D869 Track not present in AccurateRip database Copy OK
Track 16
Filename C:\Music\16 - Concerned 3rd Party.wav
Pre-gap length 0:00:01.00
Peak level 81.8 % Extraction speed 6.9 X Track quality 100.0 % Test CRC AAFC8344 Copy CRC AAFC8344 Track not present in AccurateRip database Copy OK
Track 17
Filename C:\Music\17 - Irrelevant List.wav
Pre-gap length 0:00:01.00
Peak level 57.7 % Extraction speed 6.2 X Track quality 100.0 % Test CRC 8EB8ADA8 Copy CRC 8EB8ADA8 Track not present in AccurateRip database Copy OK
Track 18
Filename C:\Music\18 - Behind Enemy Lines.wav
Pre-gap length 0:00:01.00
Peak level 94.4 % Extraction speed 5.3 X Track quality 99.9 % Test CRC D52CD137 Copy CRC D52CD137 Track not present in AccurateRip database Copy OK
Track 19
Filename C:\Music\19 - Aid Of An Old Friend.wav
Pre-gap length 0:00:00.74
Peak level 100.0 % Extraction speed 6.0 X Track quality 100.0 % Test CRC B03CDA74 Copy CRC B03CDA74 Track not present in AccurateRip database Copy OK
Track 20
Filename C:\Music\20 - A Bored Rich Guy.wav
Pre-gap length 0:00:01.00
Peak level 95.0 % Extraction speed 7.0 X Track quality 100.0 % Test CRC 2B9CCB41 Copy CRC 2B9CCB41 Track not present in AccurateRip database Copy OK
Track 21
Filename C:\Music\21 - Listening With A Million Ears.wav
Pre-gap length 0:00:01.00
Peak level 99.4 % Extraction speed 7.6 X Track quality 100.0 % Test CRC 207E212A Copy CRC 207E212A Track not present in AccurateRip database Copy OK
None of the tracks are present in the AccurateRip database
No errors occurred
End of status report
==== Log checksum BC320CEF46F79B1B11F88FB0EBAEC748BED16846CEB9E03EA08E932AA1C8FD37 ====

Содержание индексной карты (.CUE)

REM DATE 2012REM DISCID F70AD215REM COMMENT "ExactAudioCopy v1.0b3"PERFORMER "Ramin Djawadi"TITLE "Person Of Interest"FILE "01 - Person Of Interest.wav" WAVE TRACK 01 AUDIO TITLE "Person Of Interest" PERFORMER "Ramin Djawadi" INDEX 01 00:00:00 TRACK 02 AUDIO TITLE "Watching With Ten Thousand Eyes" PERFORMER "Ramin Djawadi" INDEX 00 00:53:11FILE "02 - Watching With Ten Thousand Eyes.wav" WAVE INDEX 01 00:00:00 TRACK 03 AUDIO TITLE "Angel Of Death" PERFORMER "Ramin Djawadi" INDEX 00 03:10:49FILE "03 - Angel Of Death.wav" WAVE INDEX 01 00:00:00 TRACK 04 AUDIO TITLE "Man In A Suit" PERFORMER "Ramin Djawadi" INDEX 00 02:15:57FILE "04 - Man In A Suit.wav" WAVE INDEX 01 00:00:00 TRACK 05 AUDIO TITLE "Do People Change?" PERFORMER "Ramin Djawadi" INDEX 00 01:58:29FILE "05 - Do People Change.wav" WAVE INDEX 01 00:00:00 TRACK 06 AUDIO TITLE "Have A Nice Day" PERFORMER "Ramin Djawadi" INDEX 00 02:23:43FILE "06 - Have A Nice Day.wav" WAVE INDEX 01 00:00:00 TRACK 07 AUDIO TITLE "Elias" PERFORMER "Ramin Djawadi" INDEX 00 00:45:22FILE "07 - Elias.wav" WAVE INDEX 01 00:00:00 TRACK 08 AUDIO TITLE "Second Chance" PERFORMER "Ramin Djawadi" INDEX 00 02:37:69FILE "08 - Second Chance.wav" WAVE INDEX 01 00:00:00 TRACK 09 AUDIO TITLE "Knock Knock" PERFORMER "Ramin Djawadi" INDEX 00 02:52:54FILE "09 - Knock Knock.wav" WAVE INDEX 01 00:00:00 TRACK 10 AUDIO TITLE "Root Of All Evil" PERFORMER "Ramin Djawadi" INDEX 00 01:38:15FILE "10 - Root Of All Evil.wav" WAVE INDEX 01 00:00:00 TRACK 11 AUDIO TITLE "Mr. Reese" PERFORMER "Ramin Djawadi" INDEX 00 03:26:03FILE "11 - Mr. Reese.wav" WAVE INDEX 01 00:00:00 TRACK 12 AUDIO TITLE "Detective Carter" PERFORMER "Ramin Djawadi" INDEX 00 02:46:05FILE "12 - Detective Carter.wav" WAVE INDEX 01 00:00:00 TRACK 13 AUDIO TITLE "Save Everybody" PERFORMER "Ramin Djawadi" INDEX 00 01:39:33FILE "13 - Save Everybody.wav" WAVE INDEX 01 00:00:00 TRACK 14 AUDIO TITLE "Do You Have Your Vest On Officer?" PERFORMER "Ramin Djawadi" INDEX 00 02:21:63FILE "14 - Do You Have Your Vest On Officer.wav" WAVE INDEX 01 00:00:00 TRACK 15 AUDIO TITLE "Apologies" PERFORMER "Ramin Djawadi" INDEX 00 01:17:21FILE "15 - Apologies.wav" WAVE INDEX 01 00:00:00 TRACK 16 AUDIO TITLE "Concerned 3rd Party" PERFORMER "Ramin Djawadi" INDEX 00 01:57:38FILE "16 - Concerned 3rd Party.wav" WAVE INDEX 01 00:00:00 TRACK 17 AUDIO TITLE "Irrelevant List" PERFORMER "Ramin Djawadi" INDEX 00 03:02:05FILE "17 - Irrelevant List.wav" WAVE INDEX 01 00:00:00 TRACK 18 AUDIO TITLE "Behind Enemy Lines" PERFORMER "Ramin Djawadi" INDEX 00 01:38:27FILE "18 - Behind Enemy Lines.wav" WAVE INDEX 01 00:00:00 TRACK 19 AUDIO TITLE "Aid Of An Old Friend" PERFORMER "Ramin Djawadi" INDEX 00 01:58:40FILE "19 - Aid Of An Old Friend.wav" WAVE INDEX 01 00:00:00 TRACK 20 AUDIO TITLE "A Bored Rich Guy" PERFORMER "Ramin Djawadi" INDEX 00 01:24:12FILE "20 - A Bored Rich Guy.wav" WAVE INDEX 01 00:00:00 TRACK 21 AUDIO TITLE "Listening With A Million Ears" PERFORMER "Ramin Djawadi" INDEX 00 02:22:69FILE "21 - Listening With A Million Ears.wav" WAVE INDEX 01 00:00:00
[teatrix.ru].t12479.torrent 
Торрент: Зарегистрирован [ 2016-01-01 06:15 ] · 3695FE2830A4075EE0633F5C28B33541412662B9

Скачать .torrent

Скачать

14 KB

Статус: проверено
Скачан: 0 раз
Размер: 293 MB
terms.php



Быстрый ответ

Имя:

      
Для отправки сообщений необходимо включить JavaScript
Показать сообщения:    

Текущее время: 10-Дек 10:00

Часовой пояс: UTC + 3


Вы можете начинать темы
Вы можете отвечать на сообщения
Вы не можете редактировать свои сообщения
Вы не можете удалять свои сообщения
Вы не можете голосовать в опросах
Вы не можете прикреплять файлы к сообщениям
Вы можете скачивать файлы