(Soundtrack) Ларри Краун / Larry Crowne (by James Newton Howard & VA) - 2011, FLAC (tracks+.cue), lossless


Статистика раздачи [Обновить пиров]
Размер:  343 MB   |    Зарегистрирован:  11 месяцев 5 дней   |    Скачан:  0 раз

Полного источника не было: Никогда

Личеров:  6  [  0 KB/s  ]   Подробная статистика пиров
 
   
 
 
 

[Цитировать]

Ларри Краун / Larry Crowne-Жанр: Soundtrack
Композитор: James Newton Howard
Год выпуска диска: 2011
Производитель диска: Warner, Germany
Издатель (лейбл): Playtone Records / Rhino Records
Номер по каталогу: 8122-79765-9-Аудиокодек: FLAC (*.flac)
Тип рипа: tracks+.cue
Битрейт аудио: lossless
Продолжительность: 00:47:45
Источник: собственный рип
Наличие сканов в содержимом раздачи: да, 600 dpi-Ссылки: Кинопоиск | IMDB | Wikipedia | SoundtrackCollector
MP3: (Soundtrack) Ларри Краун / Larry Crowne (by James Newton Howard & VA) - 2011, MP3 (tracks) 320 kbps

Треклист

01. Electric Light Orchestra / Hold On Tight [0:03:08.23]
02. Tom Petty / Runnin' Down A Dream [0:04:22.08]
03. Swinfly / Something's Got Me Started [0:02:38.72]
04. Billy Squier / The Stroke [0:03:38.26]
05. Sky Ferreira / Obsession [0:03:42.59]
06. Electric Light Orchestra / Calling Amerikca [0:03:29.40]
07. Tom Petty & The Heartbreakers / Listen To Her Heart [0:03:03.00]
08. Smokey Robinson / Crusin' [0:04:29.13]
09. Tyler Hilton / Faithful [0:03:51.10]
10. Tom Petty & The Heartbreakers / Walls (No. 3) [0:03:03.13]
11. Jarrod Gorbel / I'll Do Better [0:04:42.20]
12. Gigi / The Hundredth Time [0:03:33.13]
13. James Newton Howard / French Toast [0:04:03.56]

Лог создания рипа

Exact Audio Copy V1.1 from 23. June 2015
EAC extraction logfile from 30. December 2015, 12:12
Various Artists / Larry Crowne
Used drive : PLEXTOR CD-R PX-230A Adapter: 1 ID: 2
Read mode : SecureUtilize accurate stream : YesDefeat audio cache : YesMake use of C2 pointers : No
Read offset correction : 738Overread into Lead-In and Lead-Out : NoFill up missing offset samples with silence : YesDelete leading and trailing silent blocks : NoNull samples used in CRC calculations : YesUsed interface : Native Win32 interface for Win NT & 2000Gap handling : Appended to previous track
Used output format : User Defined EncoderSelected bitrate : 1024 kBit/sQuality : HighAdd ID3 tag : NoCommand line compressor : C:\Program Files (x86)\Exact Audio Copy\FLAC\FLAC.EXEAdditional command line options : -6 -V -T "ARTIST=%artist%" -T "TITLE=%title%" -T "ALBUM=%albumtitle%" -T "DATE=%year%" -T "TRACKNUMBER=%tracknr%" -T "GENRE=%genre%" -T "COMMENT=%comment%" -T "ALBUMARTIST=%albuminterpret%" -T "COMPOSER=%composer%" -T "DISCNUMBER=%cdnumber%" -T "TOTALDISCS=%totalcds%" -T "TOTALTRACKS=%numtracks%" %source% -o %dest%
TOC of the extracted CD
Track | Start | Length | Start sector | End sector --------------------------------------------------------- 1 | 0:00.00 | 3:08.23 | 0 | 14122 2 | 3:08.23 | 4:22.08 | 14123 | 33780 3 | 7:30.31 | 2:38.72 | 33781 | 45702 4 | 10:09.28 | 3:38.26 | 45703 | 62078 5 | 13:47.54 | 3:42.59 | 62079 | 78787 6 | 17:30.38 | 3:29.40 | 78788 | 94502 7 | 21:00.03 | 3:03.00 | 94503 | 108227 8 | 24:03.03 | 4:29.13 | 108228 | 128415 9 | 28:32.16 | 3:51.10 | 128416 | 145750 10 | 32:23.26 | 3:03.13 | 145751 | 159488 11 | 35:26.39 | 4:42.20 | 159489 | 180658 12 | 40:08.59 | 3:33.13 | 180659 | 196646 13 | 43:41.72 | 4:03.56 | 196647 | 214927
Track 1
Filename C:\Music\01 - Electric Light Orchestra - Hold On Tight.wav
Pre-gap length 0:00:02.00
Peak level 89.1 % Extraction speed 6.2 X Track quality 100.0 % Test CRC 71EC3F2F Copy CRC 71EC3F2F Accurately ripped (confidence 1) [351321C0] (AR v2) Copy OK
Track 2
Filename C:\Music\02 - Tom Petty - Runnin' Down A Dream.wav
Peak level 96.1 % Extraction speed 6.8 X Track quality 100.0 % Test CRC 55525A9A Copy CRC 55525A9A Accurately ripped (confidence 1) [4EC02389] (AR v2) Copy OK
Track 3
Filename C:\Music\03 - Swinfly - Something's Got Me Started.wav
Peak level 51.3 % Extraction speed 7.0 X Track quality 100.0 % Test CRC F9793163 Copy CRC F9793163 Accurately ripped (confidence 1) [EFC4309A] (AR v2) Copy OK
Track 4
Filename C:\Music\04 - Billy Squier - The Stroke.wav
Pre-gap length 0:00:00.01
Peak level 96.6 % Extraction speed 7.1 X Track quality 100.0 % Test CRC E8DAD08E Copy CRC E8DAD08E Accurately ripped (confidence 1) [78A2DE5F] (AR v2) Copy OK
Track 5
Filename C:\Music\05 - Sky Ferreira - Obsession.wav
Peak level 54.6 % Extraction speed 6.5 X Track quality 99.9 % Test CRC 1CE7C843 Copy CRC 1CE7C843 Accurately ripped (confidence 1) [64D8287D] (AR v2) Copy OK
Track 6
Filename C:\Music\06 - Electric Light Orchestra - Calling Amerikca.wav
Peak level 69.8 % Extraction speed 8.2 X Track quality 100.0 % Test CRC 890CBBC2 Copy CRC 890CBBC2 Accurately ripped (confidence 1) [25ED6B07] (AR v2) Copy OK
Track 7
Filename C:\Music\07 - Tom Petty & The Heartbreakers - Listen To Her Heart.wav
Peak level 68.3 % Extraction speed 8.5 X Track quality 100.0 % Test CRC 39906E11 Copy CRC 39906E11 Accurately ripped (confidence 1) [E6B688D7] (AR v2) Copy OK
Track 8
Filename C:\Music\08 - Smokey Robinson - Crusin'.wav
Peak level 97.2 % Extraction speed 8.5 X Track quality 100.0 % Test CRC 97653D04 Copy CRC 97653D04 Accurately ripped (confidence 1) [1BA05FD2] (AR v2) Copy OK
Track 9
Filename C:\Music\09 - Tyler Hilton - Faithful.wav
Peak level 100.0 % Extraction speed 8.5 X Track quality 100.0 % Test CRC 700246B7 Copy CRC 700246B7 Accurately ripped (confidence 1) [19129BED] (AR v2) Copy OK
Track 10
Filename C:\Music\10 - Tom Petty & The Heartbreakers - Walls (No. 3).wav
Peak level 73.3 % Extraction speed 8.9 X Track quality 100.0 % Test CRC 2BFD1343 Copy CRC 2BFD1343 Accurately ripped (confidence 1) [1B99570E] (AR v2) Copy OK
Track 11
Filename C:\Music\11 - Jarrod Gorbel - I'll Do Better.wav
Peak level 78.4 % Extraction speed 9.8 X Track quality 100.0 % Test CRC 2D76FD43 Copy CRC 2D76FD43 Accurately ripped (confidence 1) [CCE69EE7] (AR v2) Copy OK
Track 12
Filename C:\Music\12 - Gigi - The Hundredth Time.wav
Peak level 79.0 % Extraction speed 9.5 X Track quality 100.0 % Test CRC D59211F3 Copy CRC D59211F3 Accurately ripped (confidence 1) [3CB29342] (AR v2) Copy OK
Track 13
Filename C:\Music\13 - James Newton Howard - French Toast.wav
Peak level 98.7 % Extraction speed 9.2 X Track quality 100.0 % Test CRC C6AB1223 Copy CRC C6AB1223 Accurately ripped (confidence 1) [E45A98D4] (AR v2) Copy OK
All tracks accurately ripped
No errors occurred
End of status report
---- CUETools DB Plugin V2.1.6
[CTDB TOCID: 7YWic9aFDX.0jcLd_jf0vzne1ts-] foundSubmit result: 7YWic9aFDX.0jcLd_jf0vzne1ts- has been confirmedTrack | CTDB Status 1 | (3/3) Accurately ripped 2 | (3/3) Accurately ripped 3 | (3/3) Accurately ripped 4 | (3/3) Accurately ripped 5 | (3/3) Accurately ripped 6 | (3/3) Accurately ripped 7 | (3/3) Accurately ripped 8 | (3/3) Accurately ripped 9 | (3/3) Accurately ripped 10 | (3/3) Accurately ripped 11 | (3/3) Accurately ripped 12 | (3/3) Accurately ripped 13 | (3/3) Accurately ripped
==== Log checksum D4A6DCDFBF14310E7A6C8ACB572CD13782628700C34465FE4895567FDBEE6B9E ====

Содержание индексной карты (.CUE)

REM GENRE SoundtrackREM DATE 2011REM DISCID 940B310DREM COMMENT "ExactAudioCopy v1.1"PERFORMER "Various Artists"TITLE "Larry Crowne"FILE "01 - Electric Light Orchestra - Hold On Tight.wav" WAVE TRACK 01 AUDIO TITLE "Hold On Tight" PERFORMER "Electric Light Orchestra" INDEX 01 00:00:00FILE "02 - Tom Petty - Runnin' Down A Dream.wav" WAVE TRACK 02 AUDIO TITLE "Runnin' Down A Dream" PERFORMER "Tom Petty" INDEX 01 00:00:00FILE "03 - Swinfly - Something's Got Me Started.wav" WAVE TRACK 03 AUDIO TITLE "Something's Got Me Started" PERFORMER "Swinfly" INDEX 01 00:00:00 TRACK 04 AUDIO TITLE "The Stroke" PERFORMER "Billy Squier" INDEX 00 02:38:71FILE "04 - Billy Squier - The Stroke.wav" WAVE INDEX 01 00:00:00FILE "05 - Sky Ferreira - Obsession.wav" WAVE TRACK 05 AUDIO TITLE "Obsession" PERFORMER "Sky Ferreira" INDEX 01 00:00:00FILE "06 - Electric Light Orchestra - Calling Amerikca.wav" WAVE TRACK 06 AUDIO TITLE "Calling Amerikca" PERFORMER "Electric Light Orchestra" INDEX 01 00:00:00FILE "07 - Tom Petty & The Heartbreakers - Listen To Her Heart.wav" WAVE TRACK 07 AUDIO TITLE "Listen To Her Heart" PERFORMER "Tom Petty & The Heartbreakers" INDEX 01 00:00:00FILE "08 - Smokey Robinson - Crusin'.wav" WAVE TRACK 08 AUDIO TITLE "Crusin'" PERFORMER "Smokey Robinson" INDEX 01 00:00:00FILE "09 - Tyler Hilton - Faithful.wav" WAVE TRACK 09 AUDIO TITLE "Faithful" PERFORMER "Tyler Hilton" INDEX 01 00:00:00FILE "10 - Tom Petty & The Heartbreakers - Walls (No. 3).wav" WAVE TRACK 10 AUDIO TITLE "Walls (No. 3)" PERFORMER "Tom Petty & The Heartbreakers" INDEX 01 00:00:00FILE "11 - Jarrod Gorbel - I'll Do Better.wav" WAVE TRACK 11 AUDIO TITLE "I'll Do Better" PERFORMER "Jarrod Gorbel" INDEX 01 00:00:00FILE "12 - Gigi - The Hundredth Time.wav" WAVE TRACK 12 AUDIO TITLE "The Hundredth Time" PERFORMER "Gigi" INDEX 01 00:00:00FILE "13 - James Newton Howard - French Toast.wav" WAVE TRACK 13 AUDIO TITLE "French Toast" PERFORMER "James Newton Howard" INDEX 01 00:00:00
[teatrix.ru].t12480.torrent 
Торрент: Зарегистрирован [ 2016-01-01 06:15 ] · C86E9EA4F0BB80F3E1FA69F9CDCAEA14D452F480

Скачать .torrent

Скачать

29 KB

Статус: проверено
Скачан: 0 раз
Размер: 343 MB
terms.php



Быстрый ответ

Имя:

      
Для отправки сообщений необходимо включить JavaScript
Показать сообщения:    

Текущее время: 06-Дек 11:14

Часовой пояс: UTC + 3


Вы можете начинать темы
Вы можете отвечать на сообщения
Вы не можете редактировать свои сообщения
Вы не можете удалять свои сообщения
Вы не можете голосовать в опросах
Вы не можете прикреплять файлы к сообщениям
Вы можете скачивать файлы