Американская школа / All American High Revisited (Кева Розенфельд / Keva Rosenfeld) [1986, 2014, США, документальный, DVB] MVO (24 ДОК)


Статистика раздачи [Обновить пиров]
Размер:  1.85 GB   |    Зарегистрирован:  11 месяцев 6 дней   |    Скачан:  2 раза

Полного источника не было: 12 часов

 
   
 
 
 

[Цитировать]

Американская школа
All American High Revisited- Страна: США
Жанр: документальный
Год выпуска: 1986, 2014
Продолжительность: 01:18:54
Перевод: Профессиональный (многоголосый закадровый) 24 ДОК
Cубтитры: нет
Режиссер: Кева Розенфельд / Keva Rosenfeld
В ролях: Рикки Раухала / Rikki RauhalaОписание: В 1984 году финская девушка провела год в качестве ученицы по обмену в американской школе, и об этом был снят документальный фильм. Панки, скейтеры, преппи, болельщицы, спортсмены: вся сложная социальная система рассматривается глазами иностранки, которая описывает этот мир максимально непредвзято. Фильм долгое время пролежал забытым, но его возродили, добавив к изначальному сюжету интервью с героями 30 лет спустя. Панк стал полицейским, школьная красавица – примерной женой, все они пользуются мобильными телефонами и компьютерами, но с радостью вспоминают смешные и трогательные моменты из школьной жизни. (анонс канала "24 ДОК")
Доп. информация: DVB-S
Награды: номинация на Гран-при жюри за лучший документальный фильм Sundance Film Festival 1987; номинация на приз "Золотой Хьюго" за лучший документальный фильм Chicago International Film Festival 1986.

Качество видео: DVB
Формат видео: MKV
Видео: MPEG Video 2, 720x576@768x576 (4:3), 25 fps, ~3098 kbps avg, 0.299 bit/pixel
Аудио: MPEG Audio 2, 2 ch, 48 kHz, 192 kbps

MediaInfo

ОбщееУникальный идентификатор : 233069124105838283145650587661108944580 (0xAF577B038A08F08A8B4DE717FC2A9EC4)Полное имя : F:\My Torrents 3\[apreder]All_American_High_Revisited(2014)DVB.mkvФормат : MatroskaВерсия формата : Version 2Размер файла : 1,85 ГбайтПродолжительность : 1 ч. 18 м.Режим общего битрейта : ПеременныйОбщий поток : 3356 Кбит/секНазвание фильма : All American High RevisitedДата выпуска : 2014-03-00Дата кодирования : UTC 2016-01-01 13:31:38Программа кодирования : mkvmerge v8.7.0 ('All of the above') 64bitБиблиотека кодирования : libebml v1.3.3 + libmatroska v1.4.4Обложка : YesAttachments : cover.jpg / cover_small.jpgDIRECTOR : Keva RosenfeldGENRE : Documentary, Comedy, HistoryIMDB : tt3528498KEYWORDS : LAW_RATING : 16+
ВидеоИдентификатор : 1Формат : MPEG VideoВерсия формата : Version 2Профиль формата : Main@MainПараметр BVOP формата : ДаПараметр матрицы формата : ВыборочнаяПараметр GOP формата : M=3, N=36Format_Settings_PictureStructure : FrameИдентификатор кодека : V_MPEG2Идентификатор кодека/Информация : MPEG 1 or 2 VideoПродолжительность : 1 ч. 18 м.Вид битрейта : ПеременныйБитрейт : 3098 Кбит/секШирина : 720 пикселейВысота : 576 пикселейСоотношение сторон : 4:3Режим частоты кадров : ПостоянныйЧастота кадров : 25,000 кадров/секСтандарт вещания : PALЦветовое пространство : YUVСубдискретизация насыщенности : 4:2:0Битовая глубина : 8 битТип развёртки : ЧересстрочнаяПорядок развёртки : Верхнее поле первоеМетод сжатия : С потерямиБит/(Пиксели*Кадры) : 0.299Временной код первого кадра : 00:00:00:00Оригинал временного кода : Group of pictures headerРазмер потока : 1,71 Гбайт (92%)Default : ДаForced : Нет
АудиоИдентификатор : 2Формат : MPEG AudioВерсия формата : Version 1Профиль формата : Layer 2Идентификатор кодека : A_MPEG/L2Идентификатор кодека/Подсказка : MP2Продолжительность : 1 ч. 18 м.Вид битрейта : ПостоянныйБитрейт : 192 Кбит/секКаналы : 2 каналаЧастота : 48,0 КГцМетод сжатия : С потерямиРазмер потока : 108 Мбайт (6%)Язык : RussianDefault : ДаForced : Нет

Скриншот c названием фильма

Скриншоты


Резервные скриншоты


[teatrix.ru].t12488.torrent 
Торрент: Зарегистрирован [ 2016-01-02 02:55 ] · D89AF8DE45B2182865C34F45B5AE045B712529F9

Скачать .torrent

Скачать

19 KB

Статус: проверено
Скачан: 2 раз
Размер: 1.85 GB
terms.php



Быстрый ответ

Имя:

      
Для отправки сообщений необходимо включить JavaScript
Показать сообщения:    

Текущее время: 08-Дек 12:56

Часовой пояс: UTC + 3


Вы можете начинать темы
Вы можете отвечать на сообщения
Вы не можете редактировать свои сообщения
Вы не можете удалять свои сообщения
Вы не можете голосовать в опросах
Вы не можете прикреплять файлы к сообщениям
Вы можете скачивать файлы