Мертвые листья / Dead Leaves (Константин Вернер / Constantin Werner) [1998, США, мелодрама, ужасы, арт-хаус, DVDRip] VO (Хэм)


Статистика раздачи [Обновить пиров]
Размер:  743 MB   |    Зарегистрирован:  11 месяцев 5 дней   |    Скачан:  0 раз

Полного источника не было: Никогда

Личеров:  6  [  0 KB/s  ]   Подробная статистика пиров
 
   
 
 
 

[Цитировать]

Мертвые листья / Dead Leaves
Страна: США
Жанр: мелодрама, ужасы, арт-хаус
Год выпуска: 1998
Продолжительность: 1:11:06
Перевод: Одноголосый закадровый Хэм
Cубтитры: нет
Режиссер: Константин Вернер / Constantin Werner
В ролях: Хэйм Абрамски, Элизабет Гондек
Описание: Мелодраматическое артхаусное роуд-муви. Мужик возит труп своей возлюбленной по восточному побережью США под аккомпанемент готичных стихов.
Доп. информация: imdb
Сэмпл: http://multi-up.com/1081986
Качество видео: DVDRip
Формат видео: AVI
Видео: XVID, 704x392, 16:9, 1259 Kbps
Аудио: MP3, 48.0 Khz, 192 Kbps, 2.0

MediaInfo

General
Complete name : E:\1990\Мертвые листья 1998.avi
Format : AVI
Format/Info : Audio Video Interleave
File size : 743 MiB
Duration : 1h 11mn
Overall bit rate : 1 461 Kbps
Writing application : VirtualDubMod 1.5.10.3 | www.virtualdub-fr.org || (build 2550/release)
Writing library : VirtualDub build 32817/release
Video
ID : 0
Format : MPEG-4 Visual
Format profile : Advanced Simple@L5
Format settings, BVOP : 2
Format settings, QPel : No
Format settings, GMC : No warppoints
Format settings, Matrix : Default (H.263)
Codec ID : XVID
Codec ID/Hint : XviD
Duration : 1h 11mn
Bit rate : 1 259 Kbps
Width : 704 pixels
Height : 392 pixels
Display aspect ratio : 16:9
Frame rate : 23.976 fps
Color space : YUV
Chroma subsampling : 4:2:0
Bit depth : 8 bits
Scan type : Progressive
Compression mode : Lossy
Bits/(Pixel*Frame) : 0.190
Stream size : 641 MiB (86%)
Writing library : XviD 1.2.1 (UTC 2008-12-04)
Audio
ID : 1
Format : MPEG Audio
Format version : Version 1
Format profile : Layer 3
Mode : Joint stereo
Codec ID : 55
Codec ID/Hint : MP3
Duration : 1h 11mn
Bit rate mode : Constant
Bit rate : 192 Kbps
Channel(s) : 2 channels
Sampling rate : 48.0 KHz
Compression mode : Lossy
Stream size : 97.6 MiB (13%)
Alignment : Split accross interleaves
Interleave, duration : 42 ms (1.00 video frame)
Interleave, preload duration : 500 ms

Скриншоты

[teatrix.ru].t12489.torrent 
Торрент: Зарегистрирован [ 2016-01-02 02:55 ] · 51571F7DC7B023E43C24F0C9AF39C59E20E43EE3

Скачать .torrent

Скачать

15 KB

Статус: проверено
Скачан: 0 раз
Размер: 743 MB
terms.php



Быстрый ответ

Имя:

      
Для отправки сообщений необходимо включить JavaScript
Показать сообщения:    

Текущее время: 07-Дек 21:20

Часовой пояс: UTC + 3


Вы можете начинать темы
Вы можете отвечать на сообщения
Вы не можете редактировать свои сообщения
Вы не можете удалять свои сообщения
Вы не можете голосовать в опросах
Вы не можете прикреплять файлы к сообщениям
Вы можете скачивать файлы