Встреча с участниками конкурса молодых артистов (Александр Годунов, Валентин Плучек )[1974 г., репетиции спектаклей, TVRip]


 

[Цитировать]

Встреча с участниками конкурса молодых артистов Год выпуска: 1974.
Жанр: репетиции спектаклей.
Продолжительность: 00:17:51.
Исполнители:
Татьяна Васильева (Ицыкович), Нина Корниенко, Алексей Левинский, Валентин Плучек, Александр Годунов, Алексей Ермолаев.
Описание:
Рассказ о конкурсе молодых артистов театров страны, проходившем в феврале 1974 года.

В программе

1. Московский театр Сатиры
Отрывки из спектаклей исполняют: Татьяна Васильева (Ицыкович), Нина Корниенко, Алексей Левинский.
В программе участвует Валентин Плучек.
2. Большой Театр
Александр Годунов репетирует фрагменты из балета "Дон Кихот".
В программе участвует Алексей Ермолаев.
Дополнительная информация:
Страна: СССР .
Выпущено: Главная редакция литературно-драматических программ ЦТ.
Релиз

Качество видео:...TVRip
Формат:.................AVI
Видео:..688x512 (1.34:1), 25 fps, XviD MPEG-4 ~1029 kbps avg, 0.12 bit/pixel
Аудио:..44.100 kHz, MPEG Layer 3, 2 ch, ~128.00 kbps avg

Отчет MI

General
Complete name : Vstrecha.s.molodymi.artistami.1974.XviD.TVRip.fenixclub.avi
Format : AVI
Format/Info : Audio Video Interleave
File size : 149 MiB
Duration : 17mn 51s
Overall bit rate : 1 167 Kbps
Writing library : VirtualDub build 32842/release
Video
ID : 0
Format : MPEG-4 Visual
Format profile : Advanced Simple@L5
Format settings, BVOP : 2
Format settings, QPel : No
Format settings, GMC : No warppoints
Format settings, Matrix : Default (H.263)
Codec ID : XVID
Codec ID/Hint : XviD
Duration : 17mn 51s
Bit rate : 1 029 Kbps
Width : 688 pixels
Height : 512 pixels
Display aspect ratio : 4:3
Frame rate : 25.000 fps
Color space : YUV
Chroma subsampling : 4:2:0
Bit depth : 8 bits
Scan type : Progressive
Compression mode : Lossy
Bits/(Pixel*Frame) : 0.117
Stream size : 131 MiB (88%)
Writing library : XviD 73
Audio
ID : 1
Format : MPEG Audio
Format version : Version 1
Format profile : Layer 3
Mode : Joint stereo
Mode extension : MS Stereo
Codec ID : 55
Codec ID/Hint : MP3
Duration : 17mn 50s
Bit rate mode : Constant
Bit rate : 128 Kbps
Channel(s) : 2 channels
Sampling rate : 44.1 KHz
Compression mode : Lossy
Delay relative to video : 1s 100ms
Stream size : 16.3 MiB (11%)
Alignment : Split accross interleaves
Interleave, duration : 40 ms (1.00 video frame)
Interleave, preload duratio : 500 ms
Writing library : LAME3.98.2

Скриншоты

Альтернативный хост




Показать сообщения:    

Текущее время: 08-Дек 10:51

Часовой пояс: UTC + 3


Вы не можете начинать темы
Вы не можете отвечать на сообщения
Вы не можете редактировать свои сообщения
Вы не можете удалять свои сообщения
Вы не можете голосовать в опросах
Вы не можете прикреплять файлы к сообщениям
Вы не можете скачивать файлы