(Classical, sacred) Guillaume Dufay - Missa Se la face ay pale; Missa L'Homme arme - Cantica Symphonia, Giuseppe Maletto - 2014, FLAC (image+.cue) lossless


Статистика раздачи [Обновить пиров]
Размер:  365 MB   |    Зарегистрирован:  11 месяцев 2 дня   |    Скачан:  0 раз

Полного источника не было: Никогда

Личеров:  6  [  0 KB/s  ]   Подробная статистика пиров
 
   
 
 
 

[Цитировать]

Guillaume Dufay - Missa Se la face ay pale; Missa L'Homme armé - Cantica Symphonia, Giuseppe Maletto
Жанр: Classical, sacred
Страна-производитель диска: Spain
Год издания диска: 2014
Издатель (лейбл): Glossa
Номер по каталогу: GCD P31907
Дата записи: 2011, 2013
Аудиокодек: FLAC
Тип рипа: image+.cue
Битрейт аудио: lossless
Продолжительность: 80:17
Источник: собственный рип
Наличие сканов в содержимом раздачи: да
Треклист:
Guillaume Dufay (c.1397-1474)
The Masses for 1453
[1]-[5] Missa Se la face ay pale
[6]-[10] Missa L'Homme armé
Исполнители:
Cantica Symphonia
directed by Giuseppe Maletto

Лог создания рипа

Exact Audio Copy V1.1 from 23. June 2015
EAC extraction logfile from 21. December 2015, 22:54
Cantica Symphonia, Giuseppe Maletto / Dufay - The Masses for 1453
Used drive : HL-DT-STDVDRAM GU70N Adapter: 1 ID: 0
Read mode : SecureUtilize accurate stream : YesDefeat audio cache : YesMake use of C2 pointers : No
Read offset correction : 48Overread into Lead-In and Lead-Out : NoFill up missing offset samples with silence : YesDelete leading and trailing silent blocks : NoNull samples used in CRC calculations : YesUsed interface : Native Win32 interface for Win NT & 2000
Used output format : User Defined EncoderSelected bitrate : 128 kBit/sQuality : HighAdd ID3 tag : NoCommand line compressor : C:\Program Files (x86)\Exact Audio Copy\Flac\flac.exeAdditional command line options : -V -8 -T "Date=%year%" -T "Genre=%genre%" %source%
TOC of the extracted CD
Track | Start | Length | Start sector | End sector --------------------------------------------------------- 1 | 0:00.00 | 4:52.63 | 0 | 21962 2 | 4:52.63 | 10:13.02 | 21963 | 67939 3 | 15:05.65 | 9:47.12 | 67940 | 111976 4 | 24:53.02 | 7:24.56 | 111977 | 145332 5 | 32:17.58 | 6:08.62 | 145333 | 172994 6 | 38:26.45 | 4:56.68 | 172995 | 195262 7 | 43:23.38 | 8:41.53 | 195263 | 234390 8 | 52:05.16 | 12:04.26 | 234391 | 288716 9 | 64:09.42 | 8:34.41 | 288717 | 327307 10 | 72:44.08 | 7:32.00 | 327308 | 361207
Range status and errors
Selected range
Filename C:\temp\Dufay - The Masses for 1453\Dufay - The Masses for 1453.wav
Peak level 96.4 % Extraction speed 2.3 X Range quality 100.0 % Test CRC 231290F4 Copy CRC 231290F4 Copy OK
No errors occurred
AccurateRip summary
Track 1 accurately ripped (confidence 4) [3541473A] (AR v2)Track 2 accurately ripped (confidence 4) [E757AF55] (AR v2)Track 3 accurately ripped (confidence 4) [56E669B7] (AR v2)Track 4 accurately ripped (confidence 4) [5B6488EC] (AR v2)Track 5 accurately ripped (confidence 4) [1CB988A2] (AR v2)Track 6 accurately ripped (confidence 4) [C51CFDA3] (AR v2)Track 7 accurately ripped (confidence 4) [4C25239C] (AR v2)Track 8 accurately ripped (confidence 4) [EB1AFC84] (AR v2)Track 9 accurately ripped (confidence 4) [0E3E4AC3] (AR v2)Track 10 accurately ripped (confidence 4) [FE39DFD2] (AR v2)
All tracks accurately ripped
End of status report
==== Log checksum D19BE040B25A16C6357712984AE3525EA8EF2A4ADD0AAAB13EA06DFDC16B3836 ====
[teatrix.ru].t12496.torrent 
Торрент: Зарегистрирован [ 2016-01-02 02:55 ] · 76B98B904FE2E5F7EAB8A6FCBFE56246A0F498DF

Скачать .torrent

Скачать

31 KB

Статус: проверено
Скачан: 0 раз
Размер: 365 MB
terms.php



Быстрый ответ

Имя:

      
Для отправки сообщений необходимо включить JavaScript
Показать сообщения:    

Текущее время: 04-Дек 02:56

Часовой пояс: UTC + 3


Вы можете начинать темы
Вы можете отвечать на сообщения
Вы не можете редактировать свои сообщения
Вы не можете удалять свои сообщения
Вы не можете голосовать в опросах
Вы не можете прикреплять файлы к сообщениям
Вы можете скачивать файлы