(opera) Gaetano Donizetti - Lucrezia Borgia (Mariella Devia, Giuseppe Filianoti, Alex Esposito - Guidarini) - 2012, FLAC (tracks) lossless


 

[Цитировать]

Gaetano Donizetti - Lucrezia Borgia (Mariella Devia, Giuseppe Filianoti, Alex Esposito - Guidarini)
Жанр: opera
Страна-производитель диска: EU
Год издания диска: 2012
Издатель (лейбл): Bongiovanni
Дата записи: 2010
Аудиокодек: FLAC
Тип рипа: tracks
Битрейт аудио: lossless
Продолжительность: 2 hours 8 minutes
Источник: prestoclassical
сайт-источник/ник/другое: http://www.prestoclassical.co.uk/r/Bongiovanni/GB2560%252F61
Наличие сканов в содержимом раздачи: нет

Треклист

Gaetano Donizetti: Lucrezia Borgia
01. Prologue: Preludio
02. Prologue, Scene 1: Bella Venezia! (Gazella, Petrucci, Orsini, Liverotto, Vitellozzo)
03. Prologue, Scene 1: Nella fatal di Rimini (Orsini)
04. Prologue, Scene 1: Senti! La danza invitaci (Chorus)
05. Prologue, Scene 2: Tranquillo ei posa (Lucrezia, Gubetta)
06. Prologue, Scene 3: Com'e bello (Lucrezia)
07. Prologue, Scene 3: Cieli! Che vegg'io (Lucrezia, Gennaro)
08. Prologue, Scene 3: Di pescatore ignobile (Gennaro)
09. Prologue, Scene 3: Ama tua madre (Lucrezia, Gennaro)
10. Prologue, Scene 3: Gente appressa (Lucrezia, Gennaro)
11. Prologue, Scene 3: Maffio Orsini, signora, son'io (Orsini, Gazella, Petrucci, Liverotto, Gennaro, Lucrezia)
12. Act I Scene 1: Nel veneto corteggio (Duca, Rustighello)
13. Act I Scene 1: Vieni, la mia vendetta (Duca)
14. Act I Scene 2: Addio, Gennaro (Orsini, Liverotto, Vitellozzo, Gazella, Petrucci)
15. Act I Scene 3: Qui che fai? (Rustighello, Astolfo)
16. Act I Scene 4: Tutti eseguisti? (Duca, Rustighello)
17. Act I Scene 5: Cosi turbata? (Duca, Lucrezia, Gennaro)
18. Act I Scene 6: Soli noi siamo. Che chiedete? … (Duca, Lucrezia)
19. Act I Scene 7: Trafitto tosto ei sia (Duca, Lucrezia)
20. Act I: Della Duchessa ai prighi (Duca, Lucrezia, Gennaro)
21. Act I: Finale: Infelice! Il veleno bevesti (Lucrezia, Gennaro)
22. Act II Scene 1: Rischiarata e la finestra (Rustighello, Chorus)
23. Act II Scene 2: Sei tu? Son io (Gennaro, Orsini)
24. Act II: Minacciata e la mia vita (Gennaro, Orsini)
25. Act II Scene 2: Sia qual vuolsi il tuo destino (Orsini, Gennaro)
26. Act II Scene 3: Stolti! Ei corre alla Negroni (Rustighello, Chorus)
27. Act II Scene 4: Viva il Madera! (Liverotto, Vitellozzo, Gazella, Petrucci, Orsini, Gennaro)
28. Act II Scene 5: Il segreto per esser felici (Orsini)
29. Act II Scene 5: La gioja de' profani (Chorus)
30. Act II Scene 7: Tu pur qui? Non sei fuggito? (Lucrezia, Gennaro)
31. Act II Scene 8: Figlio! … Era desso il figlio mio (Lucrezia)
Исполнители:
Donizetti: Lucrezia Borgia
Mariella Devia (Lucrezia)
Giuseppe Filianoti (Gennaro)
Alex Esposito (Duca Alfonso)
Marianna Pizzolato (Orsini)
Orchestra Filharmonica Marchigiana, Coro Lirico Marchigiano 'V Bellini', Marco Guidarini

Лог проверки качества

foobar2000 1.2.2 / Замер динамического диапазона (DR) 1.1.1Дата отчёта: 2016-01-01 14:26:00
--------------------------------------------------------------------------------Анализ: Felice Romani, Orchestra Filarmonica Marchigiana, Marco Guidarini, Roberto Gattei, Gianni Paci, Marianna Pizzolato, Massimiliano Luciani, Carlo Giacchetta, Il Coro Lirico Marchigiano “Vincenzo Bellini”, Mariella Devia, Stefano Rinaldi Miliani, Giuseppe Fil / Donizetti: Lucrezia Borgia (1-13) Felice Romani/Orchestra Filarmonica Marchigiana/Roberto Gattei/Gianni Paci/Marianna Pizzolato/Massimiliano Luciani/Carlo Giacchetta/Il Coro Lirico Marchigiano “Vincenzo Bellini”/Mariella Devia/Stefano Rinaldi Miliani/Giuseppe Filianoti/Alex Esposito/Gregor / Donizetti: Lucrezia Borgia (14-31)--------------------------------------------------------------------------------
DR Пики RMS Продолжительность трека--------------------------------------------------------------------------------DR10 -6.39 дБ -23.38 дБ 1:08 ?-Lucrezia Borgia: Act I Scene 7: Trafitto tosto ei sia (Duca, Lucrezia)DR13 -3.92 дБ -20.88 дБ 6:48 ?-Lucrezia Borgia: Act I: Della Duchessa ai prighi (Duca, Lucrezia, Gennaro)DR11 -2.05 дБ -17.54 дБ 2:33 ?-Lucrezia Borgia: Act I: Finale: Infelice! Il veleno bevesti (Lucrezia, Gennaro)DR13 -3.63 дБ -20.68 дБ 4:38 ?-Lucrezia Borgia: Act II Scene 1: Rischiarata e la finestra (Rustighello, Chorus)DR13 -5.50 дБ -23.05 дБ 1:45 ?-Lucrezia Borgia: Act II Scene 2: Sei tu? Son io (Gennaro, Orsini)DR12 -3.29 дБ -19.78 дБ 5:34 ?-Lucrezia Borgia: Act II: Minacciata e la mia vita (Gennaro, Orsini)DR12 -2.08 дБ -19.42 дБ 2:48 ?-Lucrezia Borgia: Act II Scene 2: Sia qual vuolsi il tuo destino (Orsini, Gennaro)DR13 -4.44 дБ -22.76 дБ 1:37 ?-Lucrezia Borgia: Act II Scene 3: Stolti! Ei corre alla Negroni (Rustighello, Chorus)DR13 -0.50 дБ -18.60 дБ 7:01 ?-Lucrezia Borgia: Act II Scene 4: Viva il Madera! (Liverotto, Vitellozzo, Gazella, Petrucci, Orsini, Gennaro)DR12 -1.54 дБ -19.19 дБ 4:05 ?-Lucrezia Borgia: Act II Scene 5: Il segreto per esser felici (Orsini)DR12 -0.97 дБ -21.05 дБ 4:08 ?-Lucrezia Borgia: Act II Scene 5: La gioja de' profani (Chorus)DR13 -3.40 дБ -21.56 дБ 10:46 ?-Lucrezia Borgia: Act II Scene 7: Tu pur qui? Non sei fuggito? (Lucrezia, Gennaro)DR13 -0.01 дБ -18.31 дБ 7:14 ?-Lucrezia Borgia: Act II Scene 8: Figlio! … Era desso il figlio mio (Lucrezia)DR12 -3.61 дБ -21.10 дБ 2:20 ?-Lucrezia Borgia: Prologue: PreludioDR12 -2.39 дБ -18.68 дБ 2:49 ?-Lucrezia Borgia: Prologue, Scene 1: Bella Venezia! (Gazella, Petrucci, Orsini, Liverotto, Vitellozzo)DR11 -0.31 дБ -18.69 дБ 4:26 ?-Lucrezia Borgia: Prologue, Scene 1: Nella fatal di Rimini (Orsini)DR12 -0.31 дБ -17.13 дБ 2:48 ?-Lucrezia Borgia: Prologue, Scene 1: Senti! La danza invitaci (Chorus)DR12 -5.65 дБ -22.96 дБ 5:10 ?-Lucrezia Borgia: Prologue, Scene 2: Tranquillo ei posa (Lucrezia, Gubetta)DR13 -4.91 дБ -22.42 дБ 5:26 ?-Lucrezia Borgia: Prologue, Scene 3: Com'e bello (Lucrezia)DR12 -4.49 дБ -19.77 дБ 2:55 ?-Lucrezia Borgia: Prologue, Scene 3: Cieli! Che vegg'io (Lucrezia, Gennaro)DR12 -5.37 дБ -20.55 дБ 3:38 ?-Lucrezia Borgia: Prologue, Scene 3: Di pescatore ignobile (Gennaro)DR12 -2.25 дБ -19.36 дБ 3:28 ?-Lucrezia Borgia: Prologue, Scene 3: Ama tua madre (Lucrezia, Gennaro)DR11 -3.67 дБ -20.06 дБ 1:36 ?-Lucrezia Borgia: Prologue, Scene 3: Gente appressa (Lucrezia, Gennaro)DR12 -0.01 дБ -15.85 дБ 4:42 ?-Lucrezia Borgia: Prologue, Scene 3: Maffio Orsini, signora, son'io (Orsini, Gazella, Petrucci, Liverotto, Gennaro, Lucrezia)DR13 -4.27 дБ -21.78 дБ 2:31 ?-Lucrezia Borgia: Act I Scene 1: Nel veneto corteggio (Duca, Rustighello)DR13 -0.32 дБ -19.36 дБ 4:46 ?-Lucrezia Borgia: Act I Scene 1: Vieni, la mia vendetta (Duca)DR13 -6.37 дБ -23.54 дБ 3:08 ?-Lucrezia Borgia: Act I Scene 2: Addio, Gennaro (Orsini, Liverotto, Vitellozzo, Gazella, Petrucci)DR13 -3.30 дБ -20.63 дБ 4:26 ?-Lucrezia Borgia: Act I Scene 3: Qui che fai? (Rustighello, Astolfo)DR12 -6.92 дБ -25.17 дБ 1:43 ?-Lucrezia Borgia: Act I Scene 4: Tutti eseguisti? (Duca, Rustighello)DR13 -5.03 дБ -23.46 дБ 4:23 ?-Lucrezia Borgia: Act I Scene 5: Cosi turbata? (Duca, Lucrezia, Gennaro)DR13 -2.92 дБ -19.45 дБ 8:04 ?-Lucrezia Borgia: Act I Scene 6: Soli noi siamo. Che chiedete? … (Duca, Lucrezia)--------------------------------------------------------------------------------
Количество треков: 31Реальные значения DR: DR12
Частота: 44100 ГцКаналов: 2Разрядность: 16Битрейт: 692 кбит/сКодек: FLAC================================================================================



Показать сообщения:    

Текущее время: 09-Дек 12:46

Часовой пояс: UTC + 3


Вы не можете начинать темы
Вы не можете отвечать на сообщения
Вы не можете редактировать свои сообщения
Вы не можете удалять свои сообщения
Вы не можете голосовать в опросах
Вы не можете прикреплять файлы к сообщениям
Вы не можете скачивать файлы