(opera) Vincenzo Bellini - La straniera (Edita Gruberova, Laura Polverelli, Jose Bros, Luca Grassi - Pietro Rizzo) - 2015, FLAC (tracks) lossless


 

[Цитировать]

Vincenzo Bellini - La straniera - Edita Gruberova, Laura Polverelli, Jose Bros, Luca Grassi - Pietro Rizzo
Жанр: opera
Страна-производитель диска: EU
Год издания диска: 2015
Издатель (лейбл): Nightingale Classics
Дата записи: 2012
Аудиокодек: FLAC
Тип рипа: tracks
Битрейт аудио: lossless
Продолжительность: 2 hours 17 minutes
Источник: prestoclassical
сайт-источник/ник/другое: http://www.prestoclassical.co.uk/r/Nightingale/NC0715603
Наличие сканов в содержимом раздачи: нет

Треклист

Vincenzo Bellini: La straniera
01. Act I: Introduction - Voga, voga, il vento tace (Chorus)
02. Act I: Trista, pensosa, mentre a te d'intorno (Isoletta, Valdeburgo)
03. Act I: Io la vidi (Isoletta, Valdeburgo)
04. Act I: Ogni speme e a te rapita (Isoletta, Valdeburgo, Montolino, Osburgo, Chorus)
05. Act I: Osburgo? … Io non divido (Montolino, Osburgo)
06. Act I: E sgombro il loco (Arturo)
07. Act I: Qual suon! (Arturo, Alaide)
08. Act I: Alaide! Che miro! (Alaide, Arturo)
09. Act I: Serba, serba i tuoi segreti (Alaide, Arturo)
10. Act I: Campo ai veltri (Osburgo, Chorus)
11. Act I: Ti trovo alfin (Valdeburgo, Arturo, Alaide)
12. Act I: Non ti son rivale (Alaide, Arturo, Valdeburgo)
13. Act I: Che mai penso? … La Straniera a cui fe tu presti (Arturo, Osburgo, Chorus)
14. Act I: Ah! non partir (Alaide, Valdeburgo, Arturo)
15. Act I: Leopoldo! … Oh ciel! qual nome! (Arturo, Valdeburgo, Alaide, Osburgo, Chorus)
16. Act I: Un grido io sento (Alaide, Chorus)
17. Act II: Udimmo … Si, li sciogliete, o giudici (Prior, Osburgo, Alaide)
18. Act II: Si, li sciogliete, o Giudici … Meco tu vieni, o misera (Valdeburgo)
19. Act II: Tu che osasti mentir in faccia a questo (Prior, Osburgo)
20. Act II: A tempo io giungo … (Arturo, Valdeburgo)
21. Act II: Si! … Sulla salma del fratello (Arturo, Valdeburgo)
22. Act I: Ne alcun ritorna? (Isoletta)
23. Act I: Ah, se non m'ami piu (Isoletta, Chorus)
24. Act II: E dolce la vergine (Chorus)
25. Act II: Valdeburgo! … (Valdeburgo, Arturo, Isoletta, Priore, Montolino)
26. Act II: Che far vuoi tu? …(Alaide, Isoletta, Arturo, Valdeburgo)
27. Act II: Sono all'ara (Alaide)
28. Act II: Ciel pietoso, in si crudo momento (Alaide, Arturo, Priore, Valdeburgo, Chorus)
29. Act II: Or sei pago, o ciel tremendo (Alaide, Chorus)
Исполнители:
VINCENZO BELLINI
(1801-1835)
La Straniera
Melodramma in due atti
Libretto: Felice Romani
Prima rappresentazione: Milano, Teatro alla Scala, 14. 2. 1829
Alaide - Edita Gruberova
Isoletta - Laura Polverelli
Arturo di Raventel - José Bros
Valdeburgo - Luca Grassi
Signore di Montolino/Prior - Kay Stiefermann
Osburgo - Thomas Michael Allen
Orpheus Vokalensemble
(Chor-Dirigent / chorus master: Michael Alber)
SWR Sinfonieorchester Baden-Baden und Freiburg
Pietro Rizzo

Лог проверки качества

foobar2000 1.2.2 / Замер динамического диапазона (DR) 1.1.1Дата отчёта: 2016-01-01 13:55:58
--------------------------------------------------------------------------------Анализ: Edita Gruberova, Laura Polverelli, José Bros, Luca Grassi, Kay Stiefermann, Thomas Michael Allen / Bellini: La straniera--------------------------------------------------------------------------------
DR Пики RMS Продолжительность трека--------------------------------------------------------------------------------DR13 -0.36 дБ -19.17 дБ 5:42 ?-La straniera: Act I: Introduction - Voga, voga, il vento tace (Chorus)DR15 -4.71 дБ -26.90 дБ 2:39 ?-La straniera: Act I: Trista, pensosa, mentre a te d'intorno (Isoletta, Valdeburgo)DR14 -3.13 дБ -24.67 дБ 3:11 ?-La straniera: Act I: Io la vidi (Isoletta, Valdeburgo)DR12 -1.08 дБ -17.99 дБ 5:51 ?-La straniera: Act I: Ogni speme e a te rapita (Isoletta, Valdeburgo, Montolino, Osburgo, Chorus)DR15 -9.11 дБ -28.76 дБ 1:35 ?-La straniera: Act I: Osburgo? … Io non divido (Montolino, Osburgo)DR17 -1.07 дБ -25.74 дБ 4:46 ?-La straniera: Act I: E sgombro il loco (Arturo)DR13 -2.68 дБ -21.89 дБ 3:31 ?-La straniera: Act I: Qual suon! (Arturo, Alaide)DR16 -0.35 дБ -22.44 дБ 3:09 ?-La straniera: Act I: Alaide! Che miro! (Alaide, Arturo)DR13 -0.64 дБ -19.60 дБ 12:04 ?-La straniera: Act I: Serba, serba i tuoi segreti (Alaide, Arturo)DR12 -0.79 дБ -18.03 дБ 3:52 ?-La straniera: Act I: Campo ai veltri (Osburgo, Chorus)DR15 -1.74 дБ -23.33 дБ 6:14 ?-La straniera: Act I: Ti trovo alfin (Valdeburgo, Arturo, Alaide)DR12 -0.39 дБ -18.20 дБ 7:09 ?-La straniera: Act I: Non ti son rivale (Alaide, Arturo, Valdeburgo)DR15 -0.97 дБ -21.78 дБ 5:33 ?-La straniera: Act I: Che mai penso? … La Straniera a cui fe tu presti (Arturo, Osburgo, Chorus)DR14 -0.85 дБ -22.06 дБ 3:48 ?-La straniera: Act I: Ah! non partir (Alaide, Valdeburgo, Arturo)DR13 -0.79 дБ -18.47 дБ 4:05 ?-La straniera: Act I: Leopoldo! … Oh ciel! qual nome! (Arturo, Valdeburgo, Alaide, Osburgo, Chorus)DR12 -0.48 дБ -17.68 дБ 5:39 ?-La straniera: Act I: Un grido io sento (Alaide, Chorus)DR17 -0.21 дБ -24.65 дБ 5:34 ?-La straniera: Act II: Udimmo … Si, li sciogliete, o giudici (Prior, Osburgo, Alaide)DR15 -0.88 дБ -21.94 дБ 8:09 ?-La straniera: Act II: Si, li sciogliete, o Giudici … Meco tu vieni, o misera (Valdeburgo)DR14 -8.27 дБ -27.67 дБ 1:24 ?-La straniera: Act II: Tu che osasti mentir in faccia a questo (Prior, Osburgo)DR15 -6.80 дБ -26.72 дБ 4:23 ?-La straniera: Act II: A tempo io giungo … (Arturo, Valdeburgo)DR14 -1.00 дБ -20.31 дБ 7:22 ?-La straniera: Act II: Si! … Sulla salma del fratello (Arturo, Valdeburgo)DR15 -2.36 дБ -26.54 дБ 3:52 ?-La straniera: Act I: Ne alcun ritorna? (Isoletta)DR14 -0.53 дБ -19.86 дБ 6:28 ?-La straniera: Act I: Ah, se non m'ami piu (Isoletta, Chorus)DR13 -1.06 дБ -17.64 дБ 2:35 ?-La straniera: Act II: E dolce la vergine (Chorus)DR14 -0.84 дБ -22.56 дБ 1:14 ?-La straniera: Act II: Valdeburgo! … (Valdeburgo, Arturo, Isoletta, Priore, Montolino)DR15 0.00 дБ -20.93 дБ 6:00 ?-La straniera: Act II: Che far vuoi tu? …(Alaide, Isoletta, Arturo, Valdeburgo)DR12 -0.31 дБ -20.84 дБ 1:22 ?-La straniera: Act II: Sono all'ara (Alaide)DR16 -0.44 дБ -22.15 дБ 7:04 ?-La straniera: Act II: Ciel pietoso, in si crudo momento (Alaide, Arturo, Priore, Valdeburgo, Chorus)DR10 -0.35 дБ -15.37 дБ 3:22 ?-La straniera: Act II: Or sei pago, o ciel tremendo (Alaide, Chorus)--------------------------------------------------------------------------------
Количество треков: 29Реальные значения DR: DR14
Частота: 44100 ГцКаналов: 2Разрядность: 16Битрейт: 733 кбит/сКодек: FLAC================================================================================
Доп. информация:
Includes PDF booklet
Буклет в формате PDF



Показать сообщения:    

Текущее время: 10-Дек 00:20

Часовой пояс: UTC + 3


Вы не можете начинать темы
Вы не можете отвечать на сообщения
Вы не можете редактировать свои сообщения
Вы не можете удалять свои сообщения
Вы не можете голосовать в опросах
Вы не можете прикреплять файлы к сообщениям
Вы не можете скачивать файлы