Великий музей. Музей истории искусств в Вене / Das grosse Museum / The Great Museum (Йоханнес Хольцхаузен / Johannes Holzhausen) [2014, документальный, история искусств, DVB] DVO (24 ДОК)


Статистика раздачи [Обновить пиров]
Размер:  1.49 GB   |    Зарегистрирован:  11 месяцев 1 день   |    Скачан:  0 раз

Полного источника не было: Никогда

 
   
 
 
 

[Цитировать]

Великий музей
Das große Museum- Дата/Год выпуска: 2014
Страна: Австрия
Жанр: документальный, история искусств
Продолжительность: 01:32:46
Перевод: Профессиональный (двухголосый закадровый)
Доп. инфо о переводе: 24 ДОК
Русские субтитры: нет
Режиссер: Йоханнес Хольцхаузен / Johannes Holzhausen
Телеканал: 24 ДОКОписание: Этот документальный фильм посвящен одному из самых значительных мировых музеев -- Музею истории искусств в Вене. Он представляет собой уникальный взгляд за кулисы этой зачаровывающей институции, встречу с харизматичными героями этого закулисья на их рабочих местах. Фильм раскрывает особый мир музея -- как институции и как средства символической репрезентации государства. (анонс канала "24 ДОК")
Доп. информация: DVB-S
Награды: премия Калигари независимого жюри в секции "Форум" Berlin International Film Festival 2014; 2 награды Diagonale (Austria) 2014 (Гран-при за лучшую операторскую работу в полнометражном фильме, лучший монтаж); номинация на лучший документальный фильм Austrian Film Award 2015.

качество: DVB
формат: MKV
Видео: MPEG Video 2, 720x576@768x576 (4:3), 25 fps, ~2055 kbps avg, 0.198 bit/pixel
Аудио: MPEG Audio 2, 2 ch, 48 kHz, 192 kbps

MediaInfo

ОбщееУникальный идентификатор : 246343232813113386248178117426875076601 (0xB953FB1A1CC43CDB8D64F59FD4520FF9)Полное имя : F:\My Torrents 3\[apreder]Das_grosse_Museum(2014)DVB.mkvФормат : MatroskaВерсия формата : Version 2Размер файла : 1,49 ГбайтПродолжительность : 1 ч. 32 м.Режим общего битрейта : ПеременныйОбщий поток : 2293 Кбит/секНазвание фильма : Das große MuseumДата выпуска : 2014-09-05Дата кодирования : UTC 2016-01-01 11:52:24Программа кодирования : mkvmerge v8.7.0 ('All of the above') 64bitБиблиотека кодирования : libebml v1.3.3 + libmatroska v1.4.4Обложка : YesAttachments : cover.jpg / cover_small.jpgDIRECTOR : Johannes HolzhausenGENRE : DocumentaryIMDB : tt3488668KEYWORDS : LAW_RATING : 12+
ВидеоИдентификатор : 1Формат : MPEG VideoВерсия формата : Version 2Профиль формата : Main@MainПараметр BVOP формата : ДаПараметр матрицы формата : ВыборочнаяПараметр GOP формата : M=3, N=36Format_Settings_PictureStructure : FrameИдентификатор кодека : V_MPEG2Идентификатор кодека/Информация : MPEG 1 or 2 VideoПродолжительность : 1 ч. 32 м.Вид битрейта : ПеременныйБитрейт : 2055 Кбит/секШирина : 720 пикселейВысота : 576 пикселейСоотношение сторон : 4:3Режим частоты кадров : ПостоянныйЧастота кадров : 25,000 кадров/секСтандарт вещания : PALЦветовое пространство : YUVСубдискретизация насыщенности : 4:2:0Битовая глубина : 8 битТип развёртки : ЧересстрочнаяПорядок развёртки : Верхнее поле первоеМетод сжатия : С потерямиБит/(Пиксели*Кадры) : 0.198Временной код первого кадра : 00:00:00:00Оригинал временного кода : Group of pictures headerРазмер потока : 1,33 Гбайт (90%)Default : ДаForced : Нет
АудиоИдентификатор : 2Формат : MPEG AudioВерсия формата : Version 1Профиль формата : Layer 2Идентификатор кодека : A_MPEG/L2Идентификатор кодека/Подсказка : MP2Продолжительность : 1 ч. 32 м.Вид битрейта : ПостоянныйБитрейт : 192 Кбит/секКаналы : 2 каналаЧастота : 48,0 КГцМетод сжатия : С потерямиРазмер потока : 127 Мбайт (8%)Язык : RussianDefault : ДаForced : Нет

Скриншоты


Резервные скриншоты


[teatrix.ru].t12499.torrent 
Торрент: Зарегистрирован [ 2016-01-02 02:55 ] · 2EB74A30E3B7EEE0B926A0AD6DC768AE0BB2BB29

Скачать .torrent

Скачать

15 KB

Статус: проверено
Скачан: 0 раз
Размер: 1.49 GB
terms.php



Быстрый ответ

Имя:

      
Для отправки сообщений необходимо включить JavaScript
Показать сообщения:    

Текущее время: 03-Дек 03:17

Часовой пояс: UTC + 3


Вы можете начинать темы
Вы можете отвечать на сообщения
Вы не можете редактировать свои сообщения
Вы не можете удалять свои сообщения
Вы не можете голосовать в опросах
Вы не можете прикреплять файлы к сообщениям
Вы можете скачивать файлы