The Three Tenors Christmas (Irving Berlin, Styne, Villar, Brahms, Wade, Feliciano) Jose Carreras, Placido Domingo, Luciano Pavarotti, Wiener Symphoniker, Steven Mercurio [2000, Classical / Vocal / Orchestral, HDTV 720p]


 

[Цитировать]

The Three Tenors
Christmas

Steven Mercurio • Wiener Symphoniker

-
Год выпуска: 2000
Лейбл: Sony Music Entertainment Inc.
Жанр: Classical / Vocal / Orchestral
Продолжительность: 00:58:23
Режиссер: David Mallet
Исполнители:
Jose Carreras
Placido Domingo
Luciano Pavarotti
Gumpoldskirchner Spatzen
Wiener Symphoniker
Steven Mercurio - leitung
Треклист:
- White Christmas (Irving Berlin)
- Let it Snow (Jule Styne)
- Oh Tannenbaum (Traditional from Germany)
- Ay! Para Navidad (Servio Villar)
- Tu Scendi Dalle Stelle (Alfonso Maria Di Liguori)
- Carol of the Drum (K.D.Davis)
- Ave Maria, Dolce Maria (V.Benvenuti, L.Pavarotti)
- Wiegenlied (J.Brahms)
- Jingle Bells (J.Pierpont)
- Adeste Fideles (J.F.Wade)
- Cantique de Noël (A.Adam)
- Amazing Graze (J.Newton)
- Feliz Navidad (J.Feliciano)
- Silent Night (F.X.Gruber)
- Susani (Traditional from Germany)
- Un Nuevo Siglo (P.Domingo Jr.)
- Dormi O Bambino (Traditional)
- Happy Christmas / War is Over (J.Lennon, Y.Ono)
Доп. информация:
Wiener Konzerthaus, Weihnachten 1999
Die drei Tenöre Weihnachtskonzert arte.tv
Steven Mercurio Official Site
Steven Mercurio from Wikipedia, the free encyclopedia
Качество видео: HDTV 720p
Контейнер: TS
Видео кодек: H.264
Аудио кодек: AC3
Видео поток: 6 422 Kbps, 1280*720 (16:9), at 50.000 fps, AVC (High@L4.0) (CABAC / 4 Ref Frames)
Аудио поток: German, 192 Kbps, 48.0 KHz, 2 channels, MPEG Audio (Version 1) (Layer 2)
Аудио 2: French, 192 Kbps, 48.0 KHz, 2 channels, MPEG Audio (Version 1) (Layer 2)
Аудио 3: Multiple languages, 448 Kbps, 48.0 KHz, 16 bits, 6 channels, AC-3
Аудио 4: 192 Kbps, 48.0 KHz, 2 channels, MPEG Audio (Version 1) (Layer 2)
Источник: Digital Satellite > SkyStar HD2 (TechniSat) > raw data to HDD > Cypheros TS-Doctor > Smart Cutter (cut) > ts

MediaInfo

GeneralID : 8900 (0x22C4)Complete name : C:\rutracker.org_HD\arte HD_The Three Tenors Christmas 1999.tsFormat : MPEG-TSFile size : 3.20 GiBDuration : 58mn 23sOverall bit rate mode : VariableOverall bit rate : 7 844 Kbps
VideoID : 5111 (0x13F7)Menu ID : 10302 (0x283E)Format : AVCFormat/Info : Advanced Video CodecFormat profile : High@L4.0Format settings, CABAC : YesFormat settings, ReFrames : 4 framesCodec ID : 27Duration : 58mn 23sBit rate : 6 422 KbpsWidth : 1 280 pixelsHeight : 720 pixelsDisplay aspect ratio : 16:9Frame rate : 50.000 fpsColor space : YUVChroma subsampling : 4:2:0Bit depth : 8 bitsScan type : ProgressiveBits/(Pixel*Frame) : 0.139Stream size : 2.62 GiB (82%)
Audio #1ID : 5112 (0x13F8)Menu ID : 10302 (0x283E)Format : MPEG AudioFormat version : Version 1Format profile : Layer 2Codec ID : 3Duration : 58mn 23sBit rate mode : ConstantBit rate : 192 KbpsChannel(s) : 2 channelsSampling rate : 48.0 KHzCompression mode : LossyDelay relative to video : -14msStream size : 80.2 MiB (2%)Language : German
Audio #2ID : 5113 (0x13F9)Menu ID : 10302 (0x283E)Format : MPEG AudioFormat version : Version 1Format profile : Layer 2Codec ID : 3Duration : 58mn 23sBit rate mode : ConstantBit rate : 192 KbpsChannel(s) : 2 channelsSampling rate : 48.0 KHzCompression mode : LossyDelay relative to video : -14msStream size : 80.2 MiB (2%)Language : French
Audio #3ID : 5116 (0x13FC)Menu ID : 10302 (0x283E)Format : AC-3Format/Info : Audio Coding 3Mode extension : CM (complete main)Format settings, Endianness : BigCodec ID : 6Duration : 58mn 23sBit rate mode : ConstantBit rate : 448 KbpsChannel(s) : 6 channelsChannel positions : Front: L C R, Side: L R, LFESampling rate : 48.0 KHzBit depth : 16 bitsCompression mode : LossyDelay relative to video : -14msStream size : 187 MiB (6%)Language : Multiple languages
Audio #4ID : 5117 (0x13FD)Menu ID : 10302 (0x283E)Format : MPEG AudioFormat version : Version 1Format profile : Layer 2Codec ID : 3Duration : 58mn 23sBit rate mode : ConstantBit rate : 192 KbpsChannel(s) : 2 channelsSampling rate : 48.0 KHzCompression mode : LossyDelay relative to video : -14msStream size : 80.2 MiB (2%)
... info ...">

Скриншоты ... info ...


Ausverkaufte Stadien, weltweite TV-Übertragungen, höchste Sangeskunst - sie waren die Klassikstars des späten 20. Jahrhunderts: "Die drei Tenöre" José Carreras, Plácido Domingo und Luciano Pavarotti. ARTE zeigt das einzigartige Weihnachtskonzert, das sie 1999 vor begeistertem Publikum im Wiener Konzerthaus gaben. Auf dem Programm stehen berühmte Weihnachtslieder aus aller Welt.
In den 90er Jahren des letzten Jahrhunderts wurden die drei Tenöre zu Superstars der klassischen Musik, indem sie die Gunst der Stunde und die technologischen Möglichkeiten des MTV-Zeitalters nutzten. Jeder der drei Sänger, José Carreras, Plácido Domingo und Luciano Pavarotti, war für sich bereits ein Star der Opernbühnen, als sie zum ersten Mal zur Fußballweltmeisterschaft 1990 in Italien in den römischen Caracalla-Thermen auftraten.
Der Erfolg dieses Konzerts ließ ihre Gagen in bis dahin unbekannte Höhen steigen. Es folgten weitere Konzerte bei Fußballmeisterschaften, die in aller Welt ausgestrahlt wurden, so zum Beispiel 1994 in Los Angeles. Mit ihrem Best-of des Opernrepertoires verhalfen sie der Oper zu neuer Popularität - ihre Konzerte ähnelten Popkonzerten, bei denen Hit auf Hit folgte – freilich mit klassischen Tenor-Arien anstelle der größten Erfolge einer Band-Geschichte. Der 2007 verstorbene Luciano Pavarotti wurde gar zum Synonym der vollendeten Tenorstimme im Popzeitalter; Kooperationen mit Popstars wie Bono, Sting oder Eric Clapton waren Zeichen einer neuen Lässigkeit in der klassischen Musik.
Das Programm des Weihnachtskonzerts von 1999 umfasst Weihnachtslied-Klassiker aus vielen Ländern, von „White Christmas“ über „O Tannenbaum“ und „Cantique de Noël“ bis zu „Feliz Navidad“. Die unterschiedliche Stimmung der Lieder – von ausgelassen und fröhlich bis besinnlich oder feierlich – zeigt, wie vielfältig Musik zur Weihnacht sein kann. Daneben ergänzen ungewöhnliche Stücke die Auswahl, so zum Abschluss ein Weihnachtslied, das von John Lennon und Yoko Ono stammt.
~ arte.tv/guide



Показать сообщения:    

Текущее время: 11-Дек 01:28

Часовой пояс: UTC + 3


Вы не можете начинать темы
Вы не можете отвечать на сообщения
Вы не можете редактировать свои сообщения
Вы не можете удалять свои сообщения
Вы не можете голосовать в опросах
Вы не можете прикреплять файлы к сообщениям
Вы не можете скачивать файлы