(Opera) Franco Alfano - Sakuntala / Франко Альфано - Сакунтала (Ottavio Ziino; Celestina Casapietra, Michele Molese, Laura Didier Gambardella, Adriana Baldiseri, Aurio Tomicich, Ferruccio Mazzoli), 1979 - studio of Rai Roma/FLAC(tracks+.cue),lossless


 

[Цитировать]

Franco Alfano - Sakuntala / Франко Альфано - Сакунтала (Ottavio Ziino; Celestina Casapietra, Michele Molese, Laura Didier Gambardella, Adriana Baldiseri, Aurio Tomicich, Ferruccio Mazzoli)
Жанр: Opera
Год издания диска: 1996
Издатель (лейбл): Tryphon
Дата записи: 1979
Аудиокодек: FLAC
Тип рипа: tracks+.cue
Битрейт аудио: lossless
Продолжительность: 152:37
Источник: релизер (EL HUMILDE CAMPESINO)
Исполнители:
SAKUNTALA - Celestina Casapietra,
IL RE - Michele Molese,
PRIYAMVADA - Laura Didier Gambardella,
ANUSUYA - Adriana Baldiseri,
KANVA - Aurio Tomicich,
DURVASAS - Ferruccio Mazzoli,
HARITA - Mario Rinaudo,
UN GIOVANE EREMITA - Ezio Di Cesare,
UNO SCUDIERO - Carlo Micheluzzi,
UN PESCATORE - Vincenzo Tadeo,
UNA GUARDIA - Alberto Caruzzi.
Orchestra and Chorus of Rai di Roma
Conductor - Ottavio Ziino
Recorded live at Studio della Rai Roma, February 15, 1979.

Лог создания рипаЛог создания рипа CD 1

Exact Audio Copy V1.0 beta 3 from 29. August 2011
EAC extraction logfile from 1. December 2015, 14:32
Artista desconocido / Título desconocido
Used drive : HL-DT-STDVDRAM GH24NSC0 Adapter: 3 ID: 0
Read mode : SecureUtilize accurate stream : YesDefeat audio cache : YesMake use of C2 pointers : No
Read offset correction : 6Overread into Lead-In and Lead-Out : NoFill up missing offset samples with silence : YesDelete leading and trailing silent blocks : NoNull samples used in CRC calculations : YesUsed interface : Native Win32 interface for Win NT & 2000Gap handling : Appended to previous track
Used output format : User Defined EncoderSelected bitrate : 768 kBit/sQuality : HighAdd ID3 tag : NoCommand line compressor : C:\Program Files (x86)\Exact Audio Copy\FLAC\FLAC.EXEAdditional command line options : -8 -V -T "ARTIST=%artist%" -T "TITLE=%title%" -T "ALBUM=%albumtitle%" -T "DATE=%year%" -T "TRACKNUMBER=%tracknr%" -T "GENRE=%genre%" -T "PERFORMER=%albuminterpret%" -T "COMPOSER=%composer%" %haslyrics%--tag-from-file=LYRICS="%lyricsfile%"%haslyrics% -T "ALBUMARTIST=%albumartist%" -T "DISCNUMBER=%cdnumber%" -T "TOTALDISCS=%totalcds%" -T "TOTALTRACKS=%numtracks%" -T "COMMENT=%comment%" %source% -o %dest%
TOC of the extracted CD
Track | Start | Length | Start sector | End sector --------------------------------------------------------- 1 | 0:00.00 | 7:36.37 | 0 | 34236 2 | 7:36.37 | 6:02.60 | 34237 | 61446 3 | 13:39.22 | 2:44.05 | 61447 | 73751 4 | 16:23.27 | 2:43.20 | 73752 | 85996 5 | 19:06.47 | 8:29.43 | 85997 | 124214 6 | 27:36.15 | 3:42.32 | 124215 | 140896 7 | 31:18.47 | 3:55.25 | 140897 | 158546 8 | 35:13.72 | 3:50.43 | 158547 | 175839 9 | 39:04.40 | 1:37.65 | 175840 | 183179 10 | 40:42.30 | 3:15.50 | 183180 | 197854 11 | 43:58.05 | 6:19.17 | 197855 | 226296
Track 1
Filename f:\Users\Guillermo\Desktop\EAC convertidos\01 Pista01.wav
Pre-gap length 0:00:02.00
Peak level 76.9 % Extraction speed 1.9 X Track quality 100.0 % Test CRC B7B6C4B8 Copy CRC B7B6C4B8 Copy OK
Track 2
Filename f:\Users\Guillermo\Desktop\EAC convertidos\02 Pista02.wav
Peak level 49.9 % Extraction speed 2.1 X Track quality 100.0 % Test CRC 9343B647 Copy CRC 9343B647 Copy OK
Track 3
Filename f:\Users\Guillermo\Desktop\EAC convertidos\03 Pista03.wav
Peak level 62.5 % Extraction speed 2.0 X Track quality 100.0 % Test CRC FD42B651 Copy CRC FD42B651 Copy OK
Track 4
Filename f:\Users\Guillermo\Desktop\EAC convertidos\04 Pista04.wav
Peak level 74.8 % Extraction speed 2.0 X Track quality 100.0 % Test CRC 3C098E9A Copy CRC 3C098E9A Copy OK
Track 5
Filename f:\Users\Guillermo\Desktop\EAC convertidos\05 Pista05.wav
Peak level 75.3 % Extraction speed 2.4 X Track quality 99.9 % Test CRC 11392BCB Copy CRC 11392BCB Copy OK
Track 6
Filename f:\Users\Guillermo\Desktop\EAC convertidos\06 Pista06.wav
Peak level 88.6 % Extraction speed 2.1 X Track quality 99.9 % Test CRC 1342782A Copy CRC 1342782A Copy OK
Track 7
Filename f:\Users\Guillermo\Desktop\EAC convertidos\07 Pista07.wav
Peak level 99.9 % Extraction speed 2.7 X Track quality 100.0 % Test CRC F276FDCE Copy CRC F276FDCE Copy OK
Track 8
Filename f:\Users\Guillermo\Desktop\EAC convertidos\08 Pista08.wav
Peak level 91.9 % Extraction speed 2.7 X Track quality 100.0 % Test CRC F1DD0F23 Copy CRC F1DD0F23 Copy OK
Track 9
Filename f:\Users\Guillermo\Desktop\EAC convertidos\09 Pista09.wav
Peak level 97.0 % Extraction speed 2.2 X Track quality 100.0 % Test CRC C2C7178A Copy CRC C2C7178A Copy OK
Track 10
Filename f:\Users\Guillermo\Desktop\EAC convertidos\10 Pista10.wav
Peak level 70.4 % Extraction speed 2.3 X Track quality 99.8 % Test CRC 8848FF68 Copy CRC 8848FF68 Copy OK
Track 11
Filename f:\Users\Guillermo\Desktop\EAC convertidos\11 Pista11.wav
Peak level 93.1 % Extraction speed 2.8 X Track quality 99.9 % Test CRC 1545F0A0 Copy CRC 1545F0A0 Copy OK
No errors occurred
End of status report
==== Log checksum 0E24E2C35F6D74E5EE47A69244088C8F2B1908719B2C657E26DAC1E06B80FF9D ====

Лог создания рипа CD 2

Exact Audio Copy V1.0 beta 3 from 29. August 2011
EAC extraction logfile from 1. December 2015, 17:05
Artista desconocido / Título desconocido
Used drive : HL-DT-STDVDRAM GH24NSC0 Adapter: 3 ID: 0
Read mode : SecureUtilize accurate stream : YesDefeat audio cache : YesMake use of C2 pointers : No
Read offset correction : 6Overread into Lead-In and Lead-Out : NoFill up missing offset samples with silence : YesDelete leading and trailing silent blocks : NoNull samples used in CRC calculations : YesUsed interface : Native Win32 interface for Win NT & 2000Gap handling : Appended to previous track
Used output format : User Defined EncoderSelected bitrate : 768 kBit/sQuality : HighAdd ID3 tag : NoCommand line compressor : C:\Program Files (x86)\Exact Audio Copy\FLAC\FLAC.EXEAdditional command line options : -8 -V -T "ARTIST=%artist%" -T "TITLE=%title%" -T "ALBUM=%albumtitle%" -T "DATE=%year%" -T "TRACKNUMBER=%tracknr%" -T "GENRE=%genre%" -T "PERFORMER=%albuminterpret%" -T "COMPOSER=%composer%" %haslyrics%--tag-from-file=LYRICS="%lyricsfile%"%haslyrics% -T "ALBUMARTIST=%albumartist%" -T "DISCNUMBER=%cdnumber%" -T "TOTALDISCS=%totalcds%" -T "TOTALTRACKS=%numtracks%" -T "COMMENT=%comment%" %source% -o %dest%
TOC of the extracted CD
Track | Start | Length | Start sector | End sector --------------------------------------------------------- 1 | 0:00.00 | 4:15.25 | 0 | 19149 2 | 4:15.25 | 5:02.00 | 19150 | 41799 3 | 9:17.25 | 2:04.00 | 41800 | 51099 4 | 11:21.25 | 2:32.15 | 51100 | 62514 5 | 13:53.40 | 2:30.20 | 62515 | 73784 6 | 16:23.60 | 8:32.42 | 73785 | 112226 7 | 24:56.27 | 4:52.18 | 112227 | 134144 8 | 29:48.45 | 8:21.30 | 134145 | 171749 9 | 38:10.00 | 10:53.57 | 171750 | 220781 10 | 49:03.57 | 3:42.60 | 220782 | 237491 11 | 52:46.42 | 2:20.25 | 237492 | 248016 12 | 55:06.67 | 2:59.33 | 248017 | 261474 13 | 58:06.25 | 3:41.32 | 261475 | 278081 14 | 61:47.57 | 1:58.03 | 278082 | 286934 15 | 63:45.60 | 4:27.40 | 286935 | 306999 16 | 68:13.25 | 2:35.50 | 307000 | 318674 17 | 70:49.00 | 5:54.55 | 318675 | 345279
Track 1
Filename f:\Users\Guillermo\Desktop\EAC convertidos\01 Pista01.wav
Pre-gap length 0:00:02.00
Peak level 55.0 % Extraction speed 1.7 X Track quality 100.0 % Test CRC 844191B6 Copy CRC 844191B6 Copy OK
Track 2
Filename f:\Users\Guillermo\Desktop\EAC convertidos\02 Pista02.wav
Peak level 71.5 % Extraction speed 1.9 X Track quality 100.0 % Test CRC 802707FE Copy CRC 802707FE Copy OK
Track 3
Filename f:\Users\Guillermo\Desktop\EAC convertidos\03 Pista03.wav
Peak level 61.4 % Extraction speed 1.7 X Track quality 100.0 % Test CRC 4F002E97 Copy CRC 4F002E97 Copy OK
Track 4
Filename f:\Users\Guillermo\Desktop\EAC convertidos\04 Pista04.wav
Peak level 62.3 % Extraction speed 1.8 X Track quality 100.0 % Test CRC E5FF8097 Copy CRC E5FF8097 Copy OK
Track 5
Filename f:\Users\Guillermo\Desktop\EAC convertidos\05 Pista05.wav
Peak level 72.5 % Extraction speed 1.9 X Track quality 100.0 % Test CRC 30435DAA Copy CRC 30435DAA Copy OK
Track 6
Filename f:\Users\Guillermo\Desktop\EAC convertidos\06 Pista06.wav
Peak level 65.1 % Extraction speed 2.5 X Track quality 100.0 % Test CRC 9E14C335 Copy CRC 9E14C335 Copy OK
Track 7
Filename f:\Users\Guillermo\Desktop\EAC convertidos\07 Pista07.wav
Peak level 35.5 % Extraction speed 2.2 X Track quality 99.9 % Test CRC 08A8E677 Copy CRC 08A8E677 Copy OK
Track 8
Filename f:\Users\Guillermo\Desktop\EAC convertidos\08 Pista08.wav
Peak level 53.3 % Extraction speed 2.9 X Track quality 100.0 % Test CRC FD31D4AC Copy CRC FD31D4AC Copy OK
Track 9
Filename f:\Users\Guillermo\Desktop\EAC convertidos\09 Pista09.wav
Peak level 79.9 % Extraction speed 3.3 X Track quality 100.0 % Test CRC 6DBEB142 Copy CRC 6DBEB142 Copy OK
Track 10
Filename f:\Users\Guillermo\Desktop\EAC convertidos\10 Pista10.wav
Peak level 79.5 % Extraction speed 3.0 X Track quality 100.0 % Test CRC 7A865701 Copy CRC 7A865701 Copy OK
Track 11
Filename f:\Users\Guillermo\Desktop\EAC convertidos\11 Pista11.wav
Peak level 84.2 % Extraction speed 2.8 X Track quality 100.0 % Test CRC 83C4E9DC Copy CRC 83C4E9DC Copy OK
Track 12
Filename f:\Users\Guillermo\Desktop\EAC convertidos\12 Pista12.wav
Peak level 86.4 % Extraction speed 3.0 X Track quality 100.0 % Test CRC CC018233 Copy CRC CC018233 Copy OK
Track 13
Filename f:\Users\Guillermo\Desktop\EAC convertidos\13 Pista13.wav
Peak level 83.7 % Extraction speed 3.2 X Track quality 100.0 % Test CRC 3747B979 Copy CRC 3747B979 Copy OK
Track 14
Filename f:\Users\Guillermo\Desktop\EAC convertidos\14 Pista14.wav
Peak level 61.5 % Extraction speed 2.7 X Track quality 100.0 % Test CRC EE624804 Copy CRC EE624804 Copy OK
Track 15
Filename f:\Users\Guillermo\Desktop\EAC convertidos\15 Pista15.wav
Peak level 82.9 % Extraction speed 3.4 X Track quality 100.0 % Test CRC 23D4DF4A Copy CRC 23D4DF4A Copy OK
Track 16
Filename f:\Users\Guillermo\Desktop\EAC convertidos\16 Pista16.wav
Peak level 88.9 % Extraction speed 3.1 X Track quality 100.0 % Test CRC AF032909 Copy CRC AF032909 Copy OK
Track 17
Filename f:\Users\Guillermo\Desktop\EAC convertidos\17 Pista17.wav
Peak level 99.9 % Extraction speed 3.7 X Track quality 100.0 % Test CRC 671046EB Copy CRC 671046EB Copy OK
No errors occurred
End of status report
==== Log checksum 5FC9ACB34FD68B59D2F4376615C758E552867A179E44D9F6B401D9EBFA3A734D ====

Содержание индексной карты (.CUE)Содержание индексной карты (.CUE) CD 1

REM DISCID 990BC90BREM COMMENT "ExactAudioCopy v1.0b3"FILE "01 Pista01.wav" WAVE TRACK 01 AUDIO INDEX 01 00:00:00FILE "02 Pista02.wav" WAVE TRACK 02 AUDIO INDEX 01 00:00:00FILE "03 Pista03.wav" WAVE TRACK 03 AUDIO INDEX 01 00:00:00FILE "04 Pista04.wav" WAVE TRACK 04 AUDIO INDEX 01 00:00:00FILE "05 Pista05.wav" WAVE TRACK 05 AUDIO INDEX 01 00:00:00FILE "06 Pista06.wav" WAVE TRACK 06 AUDIO INDEX 01 00:00:00FILE "07 Pista07.wav" WAVE TRACK 07 AUDIO INDEX 01 00:00:00FILE "08 Pista08.wav" WAVE TRACK 08 AUDIO INDEX 01 00:00:00FILE "09 Pista09.wav" WAVE TRACK 09 AUDIO INDEX 01 00:00:00FILE "10 Pista10.wav" WAVE TRACK 10 AUDIO INDEX 01 00:00:00FILE "11 Pista11.wav" WAVE TRACK 11 AUDIO INDEX 01 00:00:00

Содержание индексной карты (.CUE) CD 2

REM DISCID 2111FB11REM COMMENT "ExactAudioCopy v1.0b3"FILE "01 Pista01.wav" WAVE TRACK 01 AUDIO INDEX 01 00:00:00FILE "02 Pista02.wav" WAVE TRACK 02 AUDIO INDEX 01 00:00:00FILE "03 Pista03.wav" WAVE TRACK 03 AUDIO INDEX 01 00:00:00FILE "04 Pista04.wav" WAVE TRACK 04 AUDIO INDEX 01 00:00:00FILE "05 Pista05.wav" WAVE TRACK 05 AUDIO INDEX 01 00:00:00FILE "06 Pista06.wav" WAVE TRACK 06 AUDIO INDEX 01 00:00:00FILE "07 Pista07.wav" WAVE TRACK 07 AUDIO INDEX 01 00:00:00FILE "08 Pista08.wav" WAVE TRACK 08 AUDIO INDEX 01 00:00:00FILE "09 Pista09.wav" WAVE TRACK 09 AUDIO INDEX 01 00:00:00FILE "10 Pista10.wav" WAVE TRACK 10 AUDIO INDEX 01 00:00:00FILE "11 Pista11.wav" WAVE TRACK 11 AUDIO INDEX 01 00:00:00FILE "12 Pista12.wav" WAVE TRACK 12 AUDIO INDEX 01 00:00:00FILE "13 Pista13.wav" WAVE TRACK 13 AUDIO INDEX 01 00:00:00FILE "14 Pista14.wav" WAVE TRACK 14 AUDIO INDEX 01 00:00:00FILE "15 Pista15.wav" WAVE TRACK 15 AUDIO INDEX 01 00:00:00FILE "16 Pista16.wav" WAVE TRACK 16 AUDIO INDEX 01 00:00:00FILE "17 Pista17.wav" WAVE TRACK 17 AUDIO INDEX 01 00:00:00

Треклист

Disc 1:
Act I:
01 Luce! Luce dei cuori!
02 Ah! Come salvare I cervi, I caprioli?
03 Priyamvada
04 Ah! Soave fanciulla!
05 Aiuto!
06 Finalmente
07 Ah! M'hanno abbandonata!
08 Sacuntala!
09 Ah! Il monile di lei!
10 Oh! il tuo braccio
11 lo vedo! lo vedo! Oh! Meraviglia!
Disc 2:
Act II:
01 Aggiungi questi anèmoni ..
02 Sakùntala, apri!
03 Ricevi
04 La parola fu detta
05 Sacuntala
06 Invano
07 Padre!
08 Padre! ... Padre mio santo ..
Act III:
09 Danza
10 Onore al Re
11 O dolcissimo volto
12 Sposo!
13 Pure
14 E che ancor?
15 Sakuntala
16 Ebbene?
17 No! Re! Non disperar!



Показать сообщения:    

Текущее время: 10-Дек 06:08

Часовой пояс: UTC + 3


Вы не можете начинать темы
Вы не можете отвечать на сообщения
Вы не можете редактировать свои сообщения
Вы не можете удалять свои сообщения
Вы не можете голосовать в опросах
Вы не можете прикреплять файлы к сообщениям
Вы не можете скачивать файлы