(Opera) P. I. Tchaikovsky - Eugene Onegin / П. И. Чайковский - Евгений Онегин (Мстислав Ростропович; Leo Nucci, Галина Вишневская, Nicolai Gedda, Raffaele Arie, Elena Zilio), 1980 - live from Teatro Comunale di Firenze / FLAC (tracks+.cue), lossless


 

[Цитировать]

Pyotr Tchaikovsky - Eugene Onegin / П. И. Чайковский - Евгений Онегин
Жанр: Opera
Год издания диска: 2003
Дата записи: 1980
Аудиокодек: FLAC
Тип рипа: tracks+.cue
Битрейт аудио: lossless
Продолжительность: 152:09
Источник: релизер (EL HUMILDE CAMPESINO)
Исполнители:
Eugene Onegin - Leo Nucci,
Tat'jana - Galina Vishnevskaja,
Lenskij - Nicolai Gedda,
Il principe Gremin - Raffaele Arie,
Larina - Katia Kolceva Angeloni,
Ol'ga - Elena Zilio,
Filipievna - Anna Di Stasio,
Un capitano della guardia - Augusto Frati,
Zareckij - Giorgio Giorgetti,
Triquet - Pier Francesco Poli.
Conductor - Mstislav Rostropovic
Orchestra and Chorus of Maggio Musicale Fiorentino
Recorded live at Teatro Comunale di Firenze, June 22, 1980.

Лог создания рипаЛог создания рипа CD 1

Exact Audio Copy V1.0 beta 3 from 29. August 2011
EAC extraction logfile from 18. December 2015, 18:52
Artista desconocido / Título desconocido
Used drive : HL-DT-STDVDRAM GH24NSC0 Adapter: 3 ID: 0
Read mode : SecureUtilize accurate stream : YesDefeat audio cache : YesMake use of C2 pointers : No
Read offset correction : 6Overread into Lead-In and Lead-Out : NoFill up missing offset samples with silence : YesDelete leading and trailing silent blocks : NoNull samples used in CRC calculations : YesUsed interface : Native Win32 interface for Win NT & 2000Gap handling : Appended to previous track
Used output format : User Defined EncoderSelected bitrate : 768 kBit/sQuality : HighAdd ID3 tag : NoCommand line compressor : C:\Program Files (x86)\Exact Audio Copy\FLAC\FLAC.EXEAdditional command line options : -8 -V -T "ARTIST=%artist%" -T "TITLE=%title%" -T "ALBUM=%albumtitle%" -T "DATE=%year%" -T "TRACKNUMBER=%tracknr%" -T "GENRE=%genre%" -T "PERFORMER=%albuminterpret%" -T "COMPOSER=%composer%" %haslyrics%--tag-from-file=LYRICS="%lyricsfile%"%haslyrics% -T "ALBUMARTIST=%albumartist%" -T "DISCNUMBER=%cdnumber%" -T "TOTALDISCS=%totalcds%" -T "TOTALTRACKS=%numtracks%" -T "COMMENT=%comment%" %source% -o %dest%
TOC of the extracted CD
Track | Start | Length | Start sector | End sector --------------------------------------------------------- 1 | 0:00.00 | 7:58.50 | 0 | 35899 2 | 7:58.50 | 4:47.14 | 35900 | 57438 3 | 12:45.64 | 3:25.50 | 57439 | 72863 4 | 16:11.39 | 3:13.10 | 72864 | 87348 5 | 19:24.49 | 1:50.20 | 87349 | 95618 6 | 21:14.69 | 1:45.18 | 95619 | 103511 7 | 23:00.12 | 2:18.63 | 103512 | 113924 8 | 25:19.00 | 3:43.53 | 113925 | 130702 9 | 29:02.53 | 1:15.25 | 130703 | 136352 10 | 30:18.03 | 8:26.69 | 136353 | 174371 11 | 38:44.72 | 8:18.02 | 174372 | 211723 12 | 47:02.74 | 4:54.44 | 211724 | 233817 13 | 51:57.43 | 6:32.59 | 233818 | 263276 14 | 58:30.27 | 3:00.31 | 263277 | 276807 15 | 61:30.58 | 4:07.23 | 276808 | 295355 16 | 65:38.06 | 4:21.13 | 295356 | 314943
Track 1
Filename f:\Users\Guillermo\Desktop\EAC convertidos\01 Pista01.wav
Pre-gap length 0:00:02.00
Peak level 51.5 % Extraction speed 1.9 X Track quality 100.0 % Test CRC 3057F932 Copy CRC 3057F932 Copy OK
Track 2
Filename f:\Users\Guillermo\Desktop\EAC convertidos\02 Pista02.wav
Peak level 50.9 % Extraction speed 2.0 X Track quality 100.0 % Test CRC BC651916 Copy CRC BC651916 Copy OK
Track 3
Filename f:\Users\Guillermo\Desktop\EAC convertidos\03 Pista03.wav
Peak level 51.5 % Extraction speed 2.0 X Track quality 100.0 % Test CRC 97D4A6CC Copy CRC 97D4A6CC Copy OK
Track 4
Filename f:\Users\Guillermo\Desktop\EAC convertidos\04 Pista04.wav
Peak level 55.1 % Extraction speed 2.1 X Track quality 100.0 % Test CRC 6686FFB0 Copy CRC 6686FFB0 Copy OK
Track 5
Filename f:\Users\Guillermo\Desktop\EAC convertidos\05 Pista05.wav
Peak level 51.5 % Extraction speed 1.4 X Track quality 99.8 % Test CRC 9A448F38 Copy CRC 9A448F38 Copy OK
Track 6
Filename f:\Users\Guillermo\Desktop\EAC convertidos\06 Pista06.wav
Peak level 51.5 % Extraction speed 1.9 X Track quality 100.0 % Test CRC 2BCFF8EA Copy CRC 2BCFF8EA Copy OK
Track 7
Filename f:\Users\Guillermo\Desktop\EAC convertidos\07 Pista07.wav
Peak level 51.5 % Extraction speed 2.1 X Track quality 100.0 % Test CRC 47FCD3A8 Copy CRC 47FCD3A8 Copy OK
Track 8
Filename f:\Users\Guillermo\Desktop\EAC convertidos\08 Pista08.wav
Peak level 51.5 % Extraction speed 2.0 X Track quality 99.9 % Test CRC 43E565D2 Copy CRC 43E565D2 Copy OK
Track 9
Filename f:\Users\Guillermo\Desktop\EAC convertidos\09 Pista09.wav
Peak level 51.5 % Extraction speed 1.8 X Track quality 100.0 % Test CRC 4DFCE478 Copy CRC 4DFCE478 Copy OK
Track 10
Filename f:\Users\Guillermo\Desktop\EAC convertidos\10 Pista10.wav
Peak level 59.1 % Extraction speed 3.0 X Track quality 100.0 % Test CRC 0AF03C97 Copy CRC 0AF03C97 Copy OK
Track 11
Filename f:\Users\Guillermo\Desktop\EAC convertidos\11 Pista11.wav
Peak level 38.8 % Extraction speed 3.2 X Track quality 100.0 % Test CRC BA26868B Copy CRC BA26868B Copy OK
Track 12
Filename f:\Users\Guillermo\Desktop\EAC convertidos\12 Pista12.wav
Peak level 61.0 % Extraction speed 3.1 X Track quality 100.0 % Test CRC C82F0C7A Copy CRC C82F0C7A Copy OK
Track 13
Filename f:\Users\Guillermo\Desktop\EAC convertidos\13 Pista13.wav
Peak level 66.0 % Extraction speed 3.4 X Track quality 100.0 % Test CRC 8512821B Copy CRC 8512821B Copy OK
Track 14
Filename f:\Users\Guillermo\Desktop\EAC convertidos\14 Pista14.wav
Peak level 73.0 % Extraction speed 3.0 X Track quality 100.0 % Test CRC 2CAFD5BE Copy CRC 2CAFD5BE Copy OK
Track 15
Filename f:\Users\Guillermo\Desktop\EAC convertidos\15 Pista15.wav
Peak level 83.9 % Extraction speed 2.8 X Track quality 99.9 % Test CRC C2CFC54B Copy CRC C2CFC54B Copy OK
Track 16
Filename f:\Users\Guillermo\Desktop\EAC convertidos\16 Pista16.wav
Peak level 60.7 % Extraction speed 3.4 X Track quality 100.0 % Test CRC 4407E1AC Copy CRC 4407E1AC Copy OK
No errors occurred
End of status report
==== Log checksum B2D77DF5C9189361C2C2F797921A0AD3B3601A498AF0B7469BCF341E6ACC5AD2 ====

Лог создания рипа CD 2

Exact Audio Copy V1.0 beta 3 from 29. August 2011
EAC extraction logfile from 19. December 2015, 7:10
Artista desconocido / Título desconocido
Used drive : HL-DT-STDVDRAM GH24NSC0 Adapter: 3 ID: 0
Read mode : SecureUtilize accurate stream : YesDefeat audio cache : YesMake use of C2 pointers : No
Read offset correction : 6Overread into Lead-In and Lead-Out : NoFill up missing offset samples with silence : YesDelete leading and trailing silent blocks : NoNull samples used in CRC calculations : YesUsed interface : Native Win32 interface for Win NT & 2000Gap handling : Appended to previous track
Used output format : User Defined EncoderSelected bitrate : 768 kBit/sQuality : HighAdd ID3 tag : NoCommand line compressor : C:\Program Files (x86)\Exact Audio Copy\FLAC\FLAC.EXEAdditional command line options : -8 -V -T "ARTIST=%artist%" -T "TITLE=%title%" -T "ALBUM=%albumtitle%" -T "DATE=%year%" -T "TRACKNUMBER=%tracknr%" -T "GENRE=%genre%" -T "PERFORMER=%albuminterpret%" -T "COMPOSER=%composer%" %haslyrics%--tag-from-file=LYRICS="%lyricsfile%"%haslyrics% -T "ALBUMARTIST=%albumartist%" -T "DISCNUMBER=%cdnumber%" -T "TOTALDISCS=%totalcds%" -T "TOTALTRACKS=%numtracks%" -T "COMMENT=%comment%" %source% -o %dest%
TOC of the extracted CD
Track | Start | Length | Start sector | End sector --------------------------------------------------------- 1 | 0:00.00 | 7:50.53 | 0 | 35302 2 | 7:50.53 | 3:30.13 | 35303 | 51065 3 | 11:20.66 | 3:34.03 | 51066 | 67118 4 | 14:54.69 | 4:47.09 | 67119 | 88652 5 | 19:42.03 | 4:35.43 | 88653 | 109320 6 | 24:17.46 | 2:50.58 | 109321 | 122128 7 | 27:08.29 | 8:18.24 | 122129 | 159502 8 | 35:26.53 | 6:01.33 | 159503 | 186610 9 | 41:28.11 | 4:36.53 | 186611 | 207363 10 | 46:04.64 | 2:24.06 | 207364 | 218169 11 | 48:28.70 | 1:42.40 | 218170 | 225859 12 | 50:11.35 | 1:54.46 | 225860 | 234455 13 | 52:06.06 | 6:43.16 | 234456 | 264696 14 | 58:49.22 | 2:09.55 | 264697 | 274426 15 | 60:59.02 | 1:39.48 | 274427 | 281899 16 | 62:38.50 | 15:06.42 | 281900 | 349891
Track 1
Filename f:\Users\Guillermo\Desktop\EAC convertidos\01 Pista01.wav
Pre-gap length 0:00:02.00
Peak level 59.2 % Extraction speed 1.9 X Track quality 100.0 % Test CRC C3641D62 Copy CRC C3641D62 Copy OK
Track 2
Filename f:\Users\Guillermo\Desktop\EAC convertidos\02 Pista02.wav
Peak level 60.0 % Extraction speed 1.9 X Track quality 100.0 % Test CRC ECAB8E3A Copy CRC ECAB8E3A Copy OK
Track 3
Filename f:\Users\Guillermo\Desktop\EAC convertidos\03 Pista03.wav
Peak level 58.2 % Extraction speed 2.0 X Track quality 100.0 % Test CRC D3914F94 Copy CRC D3914F94 Copy OK
Track 4
Filename f:\Users\Guillermo\Desktop\EAC convertidos\04 Pista04.wav
Peak level 75.0 % Extraction speed 2.0 X Track quality 99.9 % Test CRC 244EC867 Copy CRC 244EC867 Copy OK
Track 5
Filename f:\Users\Guillermo\Desktop\EAC convertidos\05 Pista05.wav
Peak level 83.4 % Extraction speed 2.4 X Track quality 100.0 % Test CRC DA343CC4 Copy CRC DA343CC4 Copy OK
Track 6
Filename f:\Users\Guillermo\Desktop\EAC convertidos\06 Pista06.wav
Peak level 78.5 % Extraction speed 2.3 X Track quality 100.0 % Test CRC E4E8BE37 Copy CRC E4E8BE37 Copy OK
Track 7
Filename f:\Users\Guillermo\Desktop\EAC convertidos\07 Pista07.wav
Peak level 58.2 % Extraction speed 2.9 X Track quality 100.0 % Test CRC F422E267 Copy CRC F422E267 Copy OK
Track 8
Filename f:\Users\Guillermo\Desktop\EAC convertidos\08 Pista08.wav
Peak level 64.6 % Extraction speed 3.0 X Track quality 100.0 % Test CRC 59AC1300 Copy CRC 59AC1300 Copy OK
Track 9
Filename f:\Users\Guillermo\Desktop\EAC convertidos\09 Pista09.wav
Peak level 62.9 % Extraction speed 2.9 X Track quality 100.0 % Test CRC 2329CF71 Copy CRC 2329CF71 Copy OK
Track 10
Filename f:\Users\Guillermo\Desktop\EAC convertidos\10 Pista10.wav
Peak level 54.2 % Extraction speed 2.6 X Track quality 100.0 % Test CRC 4E542EDC Copy CRC 4E542EDC Copy OK
Track 11
Filename f:\Users\Guillermo\Desktop\EAC convertidos\11 Pista11.wav
Peak level 64.6 % Extraction speed 2.4 X Track quality 100.0 % Test CRC AE6B980A Copy CRC AE6B980A Copy OK
Track 12
Filename f:\Users\Guillermo\Desktop\EAC convertidos\12 Pista12.wav
Peak level 51.3 % Extraction speed 2.5 X Track quality 100.0 % Test CRC 4EC12D53 Copy CRC 4EC12D53 Copy OK
Track 13
Filename f:\Users\Guillermo\Desktop\EAC convertidos\13 Pista13.wav
Peak level 58.7 % Extraction speed 3.4 X Track quality 100.0 % Test CRC FE610AF7 Copy CRC FE610AF7 Copy OK
Track 14
Filename f:\Users\Guillermo\Desktop\EAC convertidos\14 Pista14.wav
Peak level 59.8 % Extraction speed 2.8 X Track quality 100.0 % Test CRC EA44FD80 Copy CRC EA44FD80 Copy OK
Track 15
Filename f:\Users\Guillermo\Desktop\EAC convertidos\15 Pista15.wav
Peak level 56.6 % Extraction speed 2.6 X Track quality 100.0 % Test CRC 45B4ED47 Copy CRC 45B4ED47 Copy OK
Track 16
Filename f:\Users\Guillermo\Desktop\EAC convertidos\16 Pista16.wav
Peak level 65.1 % Extraction speed 4.0 X Track quality 100.0 % Test CRC 014FC1EC Copy CRC 014FC1EC Copy OK
No errors occurred
End of status report
==== Log checksum 44AA6D454FB1CDB51D2F0CE85D5F5544BDB6B5BCAC9643D483AD56C9422562B9 ====

Содержание индексной карты (.CUE)Содержание индексной карты (.CUE) CD 1

REM DISCID DF106710REM COMMENT "ExactAudioCopy v1.0b3"FILE "01 Pista01.wav" WAVE TRACK 01 AUDIO INDEX 01 00:00:00FILE "02 Pista02.wav" WAVE TRACK 02 AUDIO INDEX 01 00:00:00FILE "03 Pista03.wav" WAVE TRACK 03 AUDIO INDEX 01 00:00:00FILE "04 Pista04.wav" WAVE TRACK 04 AUDIO INDEX 01 00:00:00FILE "05 Pista05.wav" WAVE TRACK 05 AUDIO INDEX 01 00:00:00FILE "06 Pista06.wav" WAVE TRACK 06 AUDIO INDEX 01 00:00:00FILE "07 Pista07.wav" WAVE TRACK 07 AUDIO INDEX 01 00:00:00FILE "08 Pista08.wav" WAVE TRACK 08 AUDIO INDEX 01 00:00:00FILE "09 Pista09.wav" WAVE TRACK 09 AUDIO INDEX 01 00:00:00FILE "10 Pista10.wav" WAVE TRACK 10 AUDIO INDEX 01 00:00:00FILE "11 Pista11.wav" WAVE TRACK 11 AUDIO INDEX 01 00:00:00FILE "12 Pista12.wav" WAVE TRACK 12 AUDIO INDEX 01 00:00:00FILE "13 Pista13.wav" WAVE TRACK 13 AUDIO INDEX 01 00:00:00FILE "14 Pista14.wav" WAVE TRACK 14 AUDIO INDEX 01 00:00:00FILE "15 Pista15.wav" WAVE TRACK 15 AUDIO INDEX 01 00:00:00FILE "16 Pista16.wav" WAVE TRACK 16 AUDIO INDEX 01 00:00:00

Содержание индексной карты (.CUE) CD 2

REM DISCID DF123910REM COMMENT "ExactAudioCopy v1.0b3"FILE "01 Pista01.wav" WAVE TRACK 01 AUDIO INDEX 01 00:00:00FILE "02 Pista02.wav" WAVE TRACK 02 AUDIO INDEX 01 00:00:00FILE "03 Pista03.wav" WAVE TRACK 03 AUDIO INDEX 01 00:00:00FILE "04 Pista04.wav" WAVE TRACK 04 AUDIO INDEX 01 00:00:00FILE "05 Pista05.wav" WAVE TRACK 05 AUDIO INDEX 01 00:00:00FILE "06 Pista06.wav" WAVE TRACK 06 AUDIO INDEX 01 00:00:00FILE "07 Pista07.wav" WAVE TRACK 07 AUDIO INDEX 01 00:00:00FILE "08 Pista08.wav" WAVE TRACK 08 AUDIO INDEX 01 00:00:00FILE "09 Pista09.wav" WAVE TRACK 09 AUDIO INDEX 01 00:00:00FILE "10 Pista10.wav" WAVE TRACK 10 AUDIO INDEX 01 00:00:00FILE "11 Pista11.wav" WAVE TRACK 11 AUDIO INDEX 01 00:00:00FILE "12 Pista12.wav" WAVE TRACK 12 AUDIO INDEX 01 00:00:00FILE "13 Pista13.wav" WAVE TRACK 13 AUDIO INDEX 01 00:00:00FILE "14 Pista14.wav" WAVE TRACK 14 AUDIO INDEX 01 00:00:00FILE "15 Pista15.wav" WAVE TRACK 15 AUDIO INDEX 01 00:00:00FILE "16 Pista16.wav" WAVE TRACK 16 AUDIO INDEX 01 00:00:00

Треклист

Disc 1:
1-9: at the Larin's country estate
10-13: at Tatyana'a room
14-16: end of Act I
Disc 2:
1-6: the ballroom of Larin's house
6-8: on the banks
9-15: at the ball in Saint-Petersburg
16: at the reception room in Gremin's house



Показать сообщения:    

Текущее время: 06-Дек 20:57

Часовой пояс: UTC + 3


Вы не можете начинать темы
Вы не можете отвечать на сообщения
Вы не можете редактировать свои сообщения
Вы не можете удалять свои сообщения
Вы не можете голосовать в опросах
Вы не можете прикреплять файлы к сообщениям
Вы не можете скачивать файлы